<?xml version="1.0" standalone="no"?>
<!DOCTYPE svg PUBLIC "-//W3C//DTD SVG 1.1//EN" "http://www.w3.org/Graphics/SVG/1.1/DTD/svg11.dtd" >
<svg xmlns="http://www.w3.org/2000/svg" xmlns:xlink="http://www.w3.org/1999/xlink" version="1.1">
<metadata>
Created by FontForge 20170731 at Mon Sep  3 17:56:10 2018
 By Aleksey,,,
Copyright \(c\) 2010 by Ryoichi Tsunekawa. All rights reserved.
</metadata>
<defs>
<font id="BebasNeue-Bold" horiz-adv-x="396" >
  <font-face 
    font-family="Bebas Neue"
    font-weight="700"
    font-stretch="normal"
    units-per-em="1000"
    panose-1="0 0 5 0 0 0 0 0 0 0"
    ascent="800"
    descent="-200"
    x-height="700"
    cap-height="700"
    bbox="-137 -179 1000 894"
    underline-thickness="50"
    underline-position="-210"
    unicode-range="U+0020-F6C3"
  />
<missing-glyph horiz-adv-x="548" 
d="M50 700h448v-700h-448v700zM339 615l-64 -195l-63 195h-86l87 -258l-93 -272h77l69 210l68 -210h88l-93 272l87 258h-77z" />
    <glyph glyph-name=".notdef" horiz-adv-x="548" 
d="M50 700h448v-700h-448v700zM339 615l-64 -195l-63 195h-86l87 -258l-93 -272h77l69 210l68 -210h88l-93 272l87 258h-77z" />
    <glyph glyph-name=".null" horiz-adv-x="0" 
 />
    <glyph glyph-name="nonmarkingreturn" horiz-adv-x="333" 
 />
    <glyph glyph-name="space" unicode=" " horiz-adv-x="155" 
 />
    <glyph glyph-name="exclam" unicode="!" horiz-adv-x="190" 
d="M54 155l-14 253v292h110v-292l-14 -253h-82zM148 106v-106h-106v106h106z" />
    <glyph glyph-name="quotedbl" unicode="&#x22;" horiz-adv-x="325" 
d="M40 700h106l-16 -206h-75zM179 700h106l-16 -206h-75z" />
    <glyph glyph-name="numbersign" unicode="#" horiz-adv-x="410" 
d="M219 200h-65l-21 -200h-90l21 200h-49l8 78h49l19 183h-50l8 78h50l17 161h90l-17 -161h65l17 161h90l-17 -161h51l-8 -78h-51l-19 -183h51l-8 -78h-51l-21 -200h-90zM162 278h65l19 183h-65z" />
    <glyph glyph-name="dollar" unicode="$" 
d="M37 522q0 145 116 171v52h90v-52q118 -24 118 -171v-22h-104v29q0 69 -55 69t-55 -69q0 -39 22 -71.5t53.5 -57.5t63.5 -52.5t54 -71t22 -98.5q0 -72 -30.5 -116t-88.5 -56v-51h-90v51q-119 24 -119 172v48h104v-55q0 -68 57 -68t57 68q0 39 -22 71.5t-53.5 57.5
t-63.5 52.5t-54 71t-22 98.5z" />
    <glyph glyph-name="percent" unicode="%" horiz-adv-x="627" 
d="M34 593q0 54 27 83t79 29t79 -29t27 -83v-230q0 -54 -27 -83t-79 -29t-79 29t-27 83v230zM416 700h65l-276 -700h-65zM104 358q0 -44 36 -44t36 44v240q0 44 -36 44t-36 -44v-240zM381 337q0 54 27 83t79 29t79 -29t27 -83v-230q0 -54 -27 -83t-79 -29t-79 29t-27 83v230
zM451 102q0 -44 36 -44t36 44v240q0 44 -36 44t-36 -44v-240z" />
    <glyph glyph-name="ampersand" unicode="&#x26;" horiz-adv-x="414" 
d="M41 223q0 113 76 147q-76 32 -76 144v13q0 173 164 173h126v-100h-124q-56 0 -56 -68v-43q0 -40 16.5 -57t49.5 -17h48v78h110v-78h29v-100h-29v-230q0 -57 12 -85h-112q-8 22 -10 55q-29 -63 -102 -63q-122 0 -122 160v71zM151 161q0 -69 57 -69q54 0 57 61v162h-42
q-38 0 -55 -20.5t-17 -68.5v-65z" />
    <glyph glyph-name="quotesingle" unicode="'" horiz-adv-x="180" 
d="M37 700h106l-16 -206h-75z" />
    <glyph glyph-name="parenleft" unicode="(" horiz-adv-x="251" 
d="M235 700v-90h-27q-27 0 -39 -13.5t-12 -49.5v-394q0 -36 12 -49.5t39 -13.5h27v-90h-34q-83 0 -118.5 35t-35.5 118v394q0 83 35.5 118t118.5 35h34z" />
    <glyph glyph-name="parenright" unicode=")" horiz-adv-x="251" 
d="M50 700q83 0 118.5 -35t35.5 -118v-394q0 -83 -35.5 -118t-118.5 -35h-34v90h27q27 0 39 13.5t12 49.5v394q0 36 -12 49.5t-39 13.5h-27v90h34z" />
    <glyph glyph-name="asterisk" unicode="*" 
d="M179 535l-26 165h90l-26 -165l149 75l28 -85l-164 -28l117 -117l-72 -53l-77 148l-77 -148l-72 53l117 117l-164 28l28 85z" />
    <glyph glyph-name="plus" unicode="+" 
d="M237 389h134v-78h-134v-137h-78v137h-134v78h134v135h78v-135z" />
    <glyph glyph-name="comma" unicode="," horiz-adv-x="186" 
d="M40 0v106h106v-95l-48 -111h-45l29 100h-42z" />
    <glyph glyph-name="hyphen" unicode="-" horiz-adv-x="270" 
d="M35 400h200v-100h-200v100z" />
    <glyph glyph-name="period" unicode="." horiz-adv-x="186" 
d="M146 106v-106h-106v106h106z" />
    <glyph glyph-name="slash" unicode="/" horiz-adv-x="381" 
d="M281 700h95l-276 -700h-95z" />
    <glyph glyph-name="zero" unicode="0" 
d="M31 532q0 84 43 130t124 46t124 -46t43 -130v-364q0 -84 -43 -130t-124 -46t-124 46t-43 130v364zM141 161q0 -69 57 -69t57 69v378q0 69 -57 69t-57 -69v-378z" />
    <glyph glyph-name="one" unicode="1" 
d="M108 612q57 0 81 22t40 66h74v-700h-110v534h-85v78z" />
    <glyph glyph-name="two" unicode="2" 
d="M258 528q0 45 -14.5 62.5t-42.5 17.5q-57 0 -57 -69v-75h-104v68q0 85 42 130.5t122 45.5t122 -45.5t42 -130.5q0 -61 -22.5 -116t-55 -94t-64.5 -73t-54.5 -68.5t-22.5 -65.5q0 -10 1 -15h208v-100h-318v86q0 57 22.5 104.5t54.5 83t64 70t54.5 81.5t22.5 103z" />
    <glyph glyph-name="three" unicode="3" 
d="M252 528q0 45 -14.5 62.5t-42.5 17.5q-57 0 -57 -69v-45h-104v38q0 85 42 130.5t122 45.5t122 -45.5t42 -130.5v-18q0 -112 -77 -144q77 -34 77 -147v-55q0 -85 -42 -130.5t-122 -45.5t-122 45.5t-42 130.5v58h104v-65q0 -69 57 -69q28 0 42.5 17.5t14.5 61.5v55
q0 48 -17 68.5t-55 20.5h-37v100h43q33 0 49.5 17t16.5 57v39z" />
    <glyph glyph-name="four" unicode="4" 
d="M14 227l200 473h120v-473h52v-100h-52v-127h-108v127h-212v100zM226 227v263l-111 -263h111z" />
    <glyph glyph-name="five" unicode="5" 
d="M139 226v-65q0 -68 57 -68t57 68v154q0 69 -57 69t-57 -69v-21h-104l20 406h290v-100h-191l-9 -167q31 51 96 51q122 0 122 -160v-156q0 -85 -42 -130.5t-122 -45.5t-122 45.5t-42 130.5v58h104z" />
    <glyph glyph-name="six" unicode="6" 
d="M33 526q0 182 168 182q80 0 122 -45.5t42 -130.5v-18h-104v25q0 69 -57 69q-31 0 -46 -19t-15 -67v-128q29 62 102 62q122 0 122 -160v-128q0 -84 -43 -130t-124 -46t-124 46t-43 130v358zM200 356q-57 0 -57 -69v-126q0 -68 57 -68t57 68v126q0 69 -57 69z" />
    <glyph glyph-name="seven" unicode="7" 
d="M363 700v-96l-162 -604h-110l161 600h-219v100h330z" />
    <glyph glyph-name="eight" unicode="8" 
d="M370 168q0 -84 -44.5 -130t-127.5 -46t-127.5 46t-44.5 130v55q0 108 68 146q-68 37 -68 141v22q0 84 44.5 130t127.5 46t127.5 -46t44.5 -130v-22q0 -103 -68 -141q68 -38 68 -146v-55zM136 489q0 -74 62 -74t62 74v39q0 80 -62 80t-62 -80v-39zM136 171q0 -79 62 -79
q61 0 62 79v65q0 79 -62 79t-62 -79v-65z" />
    <glyph glyph-name="nine" unicode="9" 
d="M363 174q0 -182 -168 -182q-80 0 -122 45.5t-42 130.5v18h104v-25q0 -69 57 -69q31 0 46 19t15 67v128q-29 -62 -102 -62q-122 0 -122 160v128q0 84 43 130t124 46t124 -46t43 -130v-358zM196 344q57 0 57 69v126q0 68 -57 68t-57 -68v-126q0 -69 57 -69z" />
    <glyph glyph-name="colon" unicode=":" horiz-adv-x="186" 
d="M146 487v-106h-106v106h106zM146 106v-106h-106v106h106z" />
    <glyph glyph-name="semicolon" unicode=";" horiz-adv-x="186" 
d="M146 487v-106h-106v106h106zM40 0v106h106v-95l-48 -111h-45l29 100h-42z" />
    <glyph glyph-name="less" unicode="&#x3c;" 
d="M30 311v78l326 120v-79l-224 -80l224 -80v-79z" />
    <glyph glyph-name="equal" unicode="=" 
d="M361 470v-78h-326v78h326zM361 308v-78h-326v78h326z" />
    <glyph glyph-name="greater" unicode="&#x3e;" 
d="M40 191v79l224 80l-224 80v79l326 -120v-78z" />
    <glyph glyph-name="question" unicode="?" horiz-adv-x="360" 
d="M120 155q-6 18 -6 43q0 51 19 93.5t41 69t41 73.5t19 105q0 69 -55 69t-55 -69v-76h-104v69q0 85 41 130.5t121 45.5t121 -45.5t41 -130.5q0 -61 -20.5 -111.5t-44.5 -78t-44.5 -67t-20.5 -81.5q0 -22 4 -39h-98zM221 106v-106h-106v106h106z" />
    <glyph glyph-name="at" unicode="@" horiz-adv-x="689" 
d="M476 127q-82 0 -88 66q-31 -63 -97 -60q-106 3 -90 154l11 101q8 74 39 112t83 36q62 -1 82 -62l6 58h96l-30 -289q-3 -25 20 -25q39 0 59.5 69.5t20.5 156.5q0 98 -49 154.5t-150 56.5q-132 0 -201.5 -98t-69.5 -272q0 -124 58.5 -192.5t174.5 -68.5q119 0 207 68
l-8 -96q-84 -56 -205 -56q-163 0 -242 93.5t-79 256.5q0 94 23.5 175t68 142.5t116 97t161.5 35.5q148 0 213 -80t65 -214q0 -87 -19 -152.5t-50 -100t-62.5 -50.5t-63.5 -16zM298 292q-7 -64 43 -66q23 -1 37.5 14.5t18.5 48.5l10 95q3 28 -9 42t-34 14q-24 1 -38.5 -14
t-18.5 -49z" />
    <glyph glyph-name="A" unicode="A" horiz-adv-x="407" 
d="M396 0h-111l-19 127h-135l-19 -127h-101l112 700h161zM145 222h106l-53 354z" />
    <glyph glyph-name="B" unicode="B" horiz-adv-x="406" 
d="M206 700q85 0 124 -39.5t39 -121.5v-25q0 -108 -71 -141q82 -32 82 -150v-57q0 -81 -42.5 -123.5t-124.5 -42.5h-173v700h166zM150 600v-185h43q33 0 49.5 17t16.5 57v39q0 72 -56 72h-53zM150 315v-215h63q29 0 43 15.5t14 53.5v61q0 48 -16.5 66.5t-54.5 18.5h-49z" />
    <glyph glyph-name="C" unicode="C" horiz-adv-x="386" 
d="M359 261v-93q0 -85 -42 -130.5t-122 -45.5t-122 45.5t-42 130.5v364q0 85 42 130.5t122 45.5t122 -45.5t42 -130.5v-68h-104v75q0 69 -57 69t-57 -69v-378q0 -68 57 -68t57 68v100h104z" />
    <glyph glyph-name="D" unicode="D" horiz-adv-x="408" 
d="M40 700h174q164 0 164 -173v-354q0 -173 -164 -173h-174v700zM150 600v-500h62q56 0 56 68v364q0 68 -56 68h-62z" />
    <glyph glyph-name="E" unicode="E" horiz-adv-x="368" 
d="M150 405h151v-100h-151v-205h190v-100h-300v700h300v-100h-190v-195z" />
    <glyph glyph-name="F" unicode="F" horiz-adv-x="344" 
d="M150 389h142v-100h-142v-289h-110v700h291v-100h-181v-211z" />
    <glyph glyph-name="G" unicode="G" horiz-adv-x="390" 
d="M205 390h154v-222q0 -85 -42 -130.5t-122 -45.5t-122 45.5t-42 130.5v364q0 85 42 130.5t122 45.5t122 -45.5t42 -130.5v-68h-104v75q0 69 -57 69t-57 -69v-378q0 -68 57 -68t57 68v129h-50v100z" />
    <glyph glyph-name="H" unicode="H" horiz-adv-x="427" 
d="M150 0h-110v700h110v-300h125v300h112v-700h-112v300h-125v-300z" />
    <glyph glyph-name="I" unicode="I" horiz-adv-x="190" 
d="M40 700h110v-700h-110v700z" />
    <glyph glyph-name="J" unicode="J" horiz-adv-x="256" 
d="M10 100q12 -1 38 -1q63 0 63 67v534h110v-526q0 -176 -158 -176q-35 0 -53 2v100z" />
    <glyph glyph-name="K" unicode="K" horiz-adv-x="414" 
d="M184 279l-34 -64v-215h-110v700h110v-305l144 305h110l-153 -312l153 -388h-113z" />
    <glyph glyph-name="L" unicode="L" horiz-adv-x="339" 
d="M40 700h110v-600h181v-100h-291v700z" />
    <glyph glyph-name="M" unicode="M" horiz-adv-x="541" 
d="M273 203l75 497h153v-700h-104v502l-76 -502h-104l-82 495v-495h-96v700h153z" />
    <glyph glyph-name="N" unicode="N" horiz-adv-x="427" 
d="M138 507v-507h-99v700h138l113 -419v419h98v-700h-113z" />
    <glyph glyph-name="O" unicode="O" 
d="M31 532q0 84 43 130t124 46t124 -46t43 -130v-364q0 -84 -43 -130t-124 -46t-124 46t-43 130v364zM141 161q0 -69 57 -69t57 69v378q0 69 -57 69t-57 -69v-378z" />
    <glyph glyph-name="P" unicode="P" horiz-adv-x="382" 
d="M202 700q164 0 164 -173v-91q0 -173 -164 -173h-52v-263h-110v700h162zM150 600v-237h52q27 0 40.5 15t13.5 51v105q0 36 -13.5 51t-40.5 15h-52z" />
    <glyph glyph-name="Q" unicode="Q" 
d="M31 532q0 84 43 130t124 46t124 -46t43 -130v-364q0 -59 -21 -98q6 -15 31 -15h10v-98h-15q-71 0 -95 48q-36 -13 -77 -13q-81 0 -124 46t-43 130v364zM141 161q0 -69 57 -69t57 69v378q0 69 -57 69t-57 -69v-378z" />
    <glyph glyph-name="R" unicode="R" horiz-adv-x="402" 
d="M270 0q-10 30 -10 86v110q0 48 -17 68.5t-55 20.5h-38v-285h-110v700h166q85 0 124 -39.5t39 -121.5v-55q0 -108 -72 -142q73 -31 73 -149v-108q0 -57 12 -85h-112zM150 600v-215h43q33 0 49.5 17t16.5 57v69q0 72 -56 72h-53z" />
    <glyph glyph-name="S" unicode="S" horiz-adv-x="374" 
d="M26 532q0 85 41 130.5t121 45.5t121 -45.5t41 -130.5v-22h-104v29q0 69 -55 69t-55 -69q0 -29 12 -55t31 -47t42 -41.5t45.5 -43t41.5 -48t31 -60.5t12 -76q0 -85 -42 -130.5t-122 -45.5t-122 45.5t-42 130.5v43h104v-50q0 -68 57 -68t57 68q0 39 -22 73.5t-53.5 62.5
t-63.5 58.5t-54 76t-22 100.5z" />
    <glyph glyph-name="T" unicode="T" horiz-adv-x="356" 
d="M8 700h340v-100h-115v-600h-110v600h-115v100z" />
    <glyph glyph-name="U" unicode="U" horiz-adv-x="398" 
d="M145 700v-540q0 -68 57 -68t57 68v540h104v-533q0 -85 -42 -130.5t-122 -45.5t-122 45.5t-42 130.5v533h110z" />
    <glyph glyph-name="V" unicode="V" horiz-adv-x="402" 
d="M206 129l84 571h101l-108 -700h-164l-108 700h111z" />
    <glyph glyph-name="W" unicode="W" horiz-adv-x="563" 
d="M284 373l-40 -373h-151l-78 700h107l59 -552l53 552h106l55 -556l57 556h96l-78 -700h-146z" />
    <glyph glyph-name="X" unicode="X" horiz-adv-x="430" 
d="M407 700l-115 -340l123 -360h-116l-90 277l-91 -277h-103l123 360l-115 340h114l83 -258l85 258h102z" />
    <glyph glyph-name="Y" unicode="Y" 
d="M143 232l-139 468h115l84 -319l84 319h105l-139 -468v-232h-110v232z" />
    <glyph glyph-name="Z" unicode="Z" horiz-adv-x="370" 
d="M345 700v-98l-209 -502h209v-100h-322v98l209 502h-199v100h312z" />
    <glyph glyph-name="bracketleft" unicode="[" horiz-adv-x="251" 
d="M47 700h182v-90h-72v-520h72v-90h-182v700z" />
    <glyph glyph-name="backslash" unicode="\" horiz-adv-x="381" 
d="M376 0h-95l-276 700h95z" />
    <glyph glyph-name="bracketright" unicode="]" horiz-adv-x="251" 
d="M204 0h-182v90h72v520h-72v90h182v-700z" />
    <glyph glyph-name="asciicircum" unicode="^" 
d="M159 700h78l139 -310h-88l-90 210l-90 -210h-88z" />
    <glyph glyph-name="underscore" unicode="_" horiz-adv-x="500" 
d="M0 -10h500v-80h-500v80z" />
    <glyph glyph-name="grave" unicode="`" horiz-adv-x="250" 
d="M157 848l68 -111h-79l-102 111h113z" />
    <glyph glyph-name="a" unicode="a" horiz-adv-x="407" 
d="M396 0h-111l-19 127h-135l-19 -127h-101l112 700h161zM145 222h106l-53 354z" />
    <glyph glyph-name="b" unicode="b" horiz-adv-x="406" 
d="M206 700q85 0 124 -39.5t39 -121.5v-25q0 -108 -71 -141q82 -32 82 -150v-57q0 -81 -42.5 -123.5t-124.5 -42.5h-173v700h166zM150 600v-185h43q33 0 49.5 17t16.5 57v39q0 72 -56 72h-53zM150 315v-215h63q29 0 43 15.5t14 53.5v61q0 48 -16.5 66.5t-54.5 18.5h-49z" />
    <glyph glyph-name="c" unicode="c" horiz-adv-x="386" 
d="M359 261v-93q0 -85 -42 -130.5t-122 -45.5t-122 45.5t-42 130.5v364q0 85 42 130.5t122 45.5t122 -45.5t42 -130.5v-68h-104v75q0 69 -57 69t-57 -69v-378q0 -68 57 -68t57 68v100h104z" />
    <glyph glyph-name="d" unicode="d" horiz-adv-x="408" 
d="M40 700h174q164 0 164 -173v-354q0 -173 -164 -173h-174v700zM150 600v-500h62q56 0 56 68v364q0 68 -56 68h-62z" />
    <glyph glyph-name="e" unicode="e" horiz-adv-x="368" 
d="M150 405h151v-100h-151v-205h190v-100h-300v700h300v-100h-190v-195z" />
    <glyph glyph-name="f" unicode="f" horiz-adv-x="344" 
d="M150 389h142v-100h-142v-289h-110v700h291v-100h-181v-211z" />
    <glyph glyph-name="g" unicode="g" horiz-adv-x="390" 
d="M205 390h154v-222q0 -85 -42 -130.5t-122 -45.5t-122 45.5t-42 130.5v364q0 85 42 130.5t122 45.5t122 -45.5t42 -130.5v-68h-104v75q0 69 -57 69t-57 -69v-378q0 -68 57 -68t57 68v129h-50v100z" />
    <glyph glyph-name="h" unicode="h" horiz-adv-x="427" 
d="M150 0h-110v700h110v-300h125v300h112v-700h-112v300h-125v-300z" />
    <glyph glyph-name="i" unicode="i" horiz-adv-x="190" 
d="M40 700h110v-700h-110v700z" />
    <glyph glyph-name="j" unicode="j" horiz-adv-x="256" 
d="M10 100q12 -1 38 -1q63 0 63 67v534h110v-526q0 -176 -158 -176q-35 0 -53 2v100z" />
    <glyph glyph-name="k" unicode="k" horiz-adv-x="414" 
d="M184 279l-34 -64v-215h-110v700h110v-305l144 305h110l-153 -312l153 -388h-113z" />
    <glyph glyph-name="l" unicode="l" horiz-adv-x="339" 
d="M40 700h110v-600h181v-100h-291v700z" />
    <glyph glyph-name="m" unicode="m" horiz-adv-x="541" 
d="M273 203l75 497h153v-700h-104v502l-76 -502h-104l-82 495v-495h-96v700h153z" />
    <glyph glyph-name="n" unicode="n" horiz-adv-x="427" 
d="M138 507v-507h-99v700h138l113 -419v419h98v-700h-113z" />
    <glyph glyph-name="o" unicode="o" 
d="M31 532q0 84 43 130t124 46t124 -46t43 -130v-364q0 -84 -43 -130t-124 -46t-124 46t-43 130v364zM141 161q0 -69 57 -69t57 69v378q0 69 -57 69t-57 -69v-378z" />
    <glyph glyph-name="p" unicode="p" horiz-adv-x="377" 
d="M202 700q164 0 164 -173v-91q0 -173 -164 -173h-52v-263h-110v700h162zM150 600v-237h52q27 0 40.5 15t13.5 51v105q0 36 -13.5 51t-40.5 15h-52z" />
    <glyph glyph-name="q" unicode="q" 
d="M31 532q0 84 43 130t124 46t124 -46t43 -130v-364q0 -59 -21 -98q6 -15 31 -15h10v-98h-15q-71 0 -95 48q-36 -13 -77 -13q-81 0 -124 46t-43 130v364zM141 161q0 -69 57 -69t57 69v378q0 69 -57 69t-57 -69v-378z" />
    <glyph glyph-name="r" unicode="r" horiz-adv-x="402" 
d="M270 0q-10 30 -10 86v110q0 48 -17 68.5t-55 20.5h-38v-285h-110v700h166q85 0 124 -39.5t39 -121.5v-55q0 -108 -72 -142q73 -31 73 -149v-108q0 -57 12 -85h-112zM150 600v-215h43q33 0 49.5 17t16.5 57v69q0 72 -56 72h-53z" />
    <glyph glyph-name="s" unicode="s" horiz-adv-x="374" 
d="M26 532q0 85 41 130.5t121 45.5t121 -45.5t41 -130.5v-22h-104v29q0 69 -55 69t-55 -69q0 -29 12 -55t31 -47t42 -41.5t45.5 -43t41.5 -48t31 -60.5t12 -76q0 -85 -42 -130.5t-122 -45.5t-122 45.5t-42 130.5v43h104v-50q0 -68 57 -68t57 68q0 39 -22 73.5t-53.5 62.5
t-63.5 58.5t-54 76t-22 100.5z" />
    <glyph glyph-name="t" unicode="t" horiz-adv-x="356" 
d="M8 700h340v-100h-115v-600h-110v600h-115v100z" />
    <glyph glyph-name="u" unicode="u" horiz-adv-x="398" 
d="M145 700v-540q0 -68 57 -68t57 68v540h104v-533q0 -85 -42 -130.5t-122 -45.5t-122 45.5t-42 130.5v533h110z" />
    <glyph glyph-name="v" unicode="v" horiz-adv-x="402" 
d="M206 129l84 571h101l-108 -700h-164l-108 700h111z" />
    <glyph glyph-name="w" unicode="w" horiz-adv-x="563" 
d="M284 373l-40 -373h-151l-78 700h107l59 -552l53 552h106l55 -556l57 556h96l-78 -700h-146z" />
    <glyph glyph-name="x" unicode="x" horiz-adv-x="430" 
d="M407 700l-115 -340l123 -360h-116l-90 277l-91 -277h-103l123 360l-115 340h114l83 -258l85 258h102z" />
    <glyph glyph-name="y" unicode="y" 
d="M143 232l-139 468h115l84 -319l84 319h105l-139 -468v-232h-110v232z" />
    <glyph glyph-name="z" unicode="z" horiz-adv-x="370" 
d="M345 700v-98l-209 -502h209v-100h-322v98l209 502h-199v100h312z" />
    <glyph glyph-name="braceleft" unicode="{" horiz-adv-x="257" 
d="M102 350q61 -16 65 -89l5 -100q2 -40 14 -55.5t39 -15.5h16v-90h-56q-48 0 -77.5 28t-33.5 83l-8 134q-2 35 -13 47.5t-42 12.5v90q31 0 42 12.5t13 47.5l8 134q4 55 33.5 83t77.5 28h56v-90h-16q-27 0 -39 -15.5t-14 -55.5l-5 -100q-4 -73 -65 -89z" />
    <glyph glyph-name="bar" unicode="|" horiz-adv-x="500" 
d="M210 765h90v-830h-90v830z" />
    <glyph glyph-name="braceright" unicode="}" horiz-adv-x="257" 
d="M155 350q-61 16 -65 89l-5 100q-2 40 -14 55.5t-39 15.5h-16v90h56q48 0 77.5 -28t33.5 -83l8 -134q2 -35 13 -47.5t42 -12.5v-90q-31 0 -42 -12.5t-13 -47.5l-8 -134q-4 -55 -33.5 -83t-77.5 -28h-56v90h16q27 0 39 15.5t14 55.5l5 100q4 73 65 89z" />
    <glyph glyph-name="asciitilde" unicode="~" 
d="M8 332q34 51 61.5 70.5t57.5 19.5q29 0 76 -30.5t67 -30.5q16 0 28.5 11.5t37.5 45.5l52 -54q-34 -50 -61 -68t-58 -18q-29 0 -76 30.5t-67 30.5q-17 0 -29.5 -11.5t-36.5 -45.5z" />
    <glyph glyph-name="uni00A0" unicode="&#xa0;" horiz-adv-x="155" 
 />
    <glyph glyph-name="exclamdown" unicode="&#xa1;" horiz-adv-x="190" 
d="M42 594v106h106v-106h-106zM136 545l14 -253v-292h-110v292l14 253h82z" />
    <glyph glyph-name="cent" unicode="&#xa2;" 
d="M153 37q-117 24 -117 171v284q0 145 117 171v52h90v-51q121 -24 121 -172v-48h-104v55q0 69 -57 69t-57 -69v-298q0 -68 57 -68t57 68v80h104v-73q0 -149 -121 -172v-51h-90v52z" />
    <glyph glyph-name="sterling" unicode="&#xa3;" 
d="M44 295h67q-7 19 -27.5 60t-32 81.5t-11.5 95.5q0 85 41 130.5t121 45.5t121 -45.5t41 -130.5v-69h-104v76q0 69 -55 69t-55 -69q0 -55 12 -97.5t30.5 -81.5t24.5 -65h121v-85h-114q-7 -71 -56 -110h189v-100h-327v96q40 0 67 30.5t28 83.5h-81v85z" />
    <glyph glyph-name="currency" unicode="&#xa4;" 
d="M87 282q-18 30 -18 68t18 67l-55 56l43 43l56 -56q30 19 67 19q35 0 67 -19l56 56l43 -43l-56 -56q19 -32 19 -67q0 -37 -19 -67l56 -56l-43 -43l-56 55q-29 -18 -67 -18t-68 18l-55 -55l-43 43zM134 350q0 -26 19 -45t45 -19t45 19t19 45t-19 45t-45 19t-45 -19t-19 -45
z" />
    <glyph glyph-name="yen" unicode="&#xa5;" 
d="M389 700l-128 -429h83v-55h-91v-45h91v-55h-91v-116h-110v116h-91v55h91v45h-91v55h82l-127 429h115l81 -309l81 309h105z" />
    <glyph glyph-name="brokenbar" unicode="&#xa6;" horiz-adv-x="500" 
d="M210 765h90v-355h-90v355zM210 290h90v-355h-90v355z" />
    <glyph glyph-name="section" unicode="&#xa7;" 
d="M35 314q0 83 69 122q-69 45 -69 130q0 63 42 102.5t120 39.5t120 -37t42 -99v-36h-104v21q0 27 -14.5 43.5t-40.5 16.5q-55 0 -55 -56q0 -22 22 -38.5t53.5 -30t63.5 -31.5t54 -53.5t22 -86.5q0 -83 -70 -123q70 -43 70 -129q0 -63 -42 -102.5t-120 -39.5t-120 37t-42 99
v50h104v-35q0 -27 14.5 -43.5t40.5 -16.5q55 0 55 56q0 22 -22 38.5t-53.5 30t-63.5 31.5t-54 53.5t-22 86.5zM140 318q0 -28 15.5 -45t45.5 -32q24 4 39 25.5t15 50.5q0 46 -62 76q-24 -4 -38.5 -25t-14.5 -50z" />
    <glyph glyph-name="dieresis" unicode="&#xa8;" horiz-adv-x="250" 
d="M97 833v-96h-96v96h96zM249 833v-96h-96v96h96z" />
    <glyph glyph-name="copyright" unicode="&#xa9;" horiz-adv-x="736" 
d="M20 350q0 155 99.5 256.5t248.5 101.5t248.5 -101.5t99.5 -256.5t-99.5 -256.5t-248.5 -101.5t-248.5 101.5t-99.5 256.5zM92 350q0 -125 78.5 -206.5t197.5 -81.5t197.5 81.5t78.5 206.5t-78.5 206.5t-197.5 81.5t-197.5 -81.5t-78.5 -206.5zM477 308v-56
q0 -122 -113 -122t-113 122v194q0 124 113 124t113 -124v-36h-72v42q0 48 -39 48t-39 -48v-204q0 -47 39 -47t39 47v60h72z" />
    <glyph glyph-name="ordfeminine" unicode="&#xaa;" horiz-adv-x="278" 
d="M30 433q0 67 37 95t105 30v46q0 37 -28 37q-34 0 -34 -43v-23h-66v19q0 111 103 111q95 0 95 -111v-261h-59l-4 48q-17 -53 -71 -53q-78 0 -78 101v4zM100 435q0 -43 36 -43q33 0 36 36v78q-72 -3 -72 -62v-9zM242 287v-69h-212v69h212z" />
    <glyph glyph-name="guillemotleft" unicode="&#xab;" horiz-adv-x="355" 
d="M177 608l-61 -257l61 -273h-99l-62 273l62 257h99zM339 608l-61 -257l61 -273h-99l-62 273l62 257h99z" />
    <glyph glyph-name="logicalnot" unicode="&#xac;" 
d="M371 389v-215h-78v137h-268v78h346z" />
    <glyph glyph-name="uni00AD" unicode="&#xad;" horiz-adv-x="270" 
d="M35 400h200v-100h-200v100z" />
    <glyph glyph-name="registered" unicode="&#xae;" horiz-adv-x="736" 
d="M20 350q0 155 99.5 256.5t248.5 101.5t248.5 -101.5t99.5 -256.5t-99.5 -256.5t-248.5 -101.5t-248.5 101.5t-99.5 256.5zM92 350q0 -125 78.5 -206.5t197.5 -81.5t197.5 81.5t78.5 206.5t-78.5 206.5t-197.5 81.5t-197.5 -81.5t-78.5 -206.5zM418 136q-7 18 -7 60v46
q0 34 -12 48t-39 14h-26v-168h-76v428h116q113 0 113 -112v-9q0 -76 -52 -99q52 -21 52 -103v-46q0 -39 9 -59h-78zM334 494v-120h31q46 0 46 51v18q0 51 -41 51h-36z" />
    <glyph glyph-name="macron" unicode="&#xaf;" horiz-adv-x="250" 
d="M240 819v-78h-230v78h230z" />
    <glyph glyph-name="degree" unicode="&#xb0;" horiz-adv-x="228" 
d="M15 609q0 41 29 70t70 29t70 -29t29 -70t-29 -70t-70 -29t-70 29t-29 70zM65 609q0 -20 14.5 -34.5t34.5 -14.5t34.5 14.5t14.5 34.5t-14.5 34.5t-34.5 14.5t-34.5 -14.5t-14.5 -34.5z" />
    <glyph glyph-name="plusminus" unicode="&#xb1;" 
d="M361 252v-78h-326v78h124v80h-124v78h124v114h78v-114h124v-78h-124v-80h124z" />
    <glyph glyph-name="uni00B2" unicode="&#xb2;" horiz-adv-x="280" 
d="M180 688q0 50 -36 50t-36 -44v-47h-66v43q0 111 104 111t104 -111q0 -49 -23.5 -93.5t-51 -70.5t-48 -56t-15.5 -56h132v-63h-202v54q0 36 14 66.5t34.5 53l41 45t34.5 53t14 65.5z" />
    <glyph glyph-name="uni00B3" unicode="&#xb3;" horiz-adv-x="280" 
d="M174 494q0 31 -10.5 43.5t-34.5 12.5h-24v63h27q42 0 42 48v25q0 51 -36 51t-36 -44v-28h-66v23q0 112 104 112t104 -112v-11q0 -71 -49 -91q49 -21 49 -93v-35q0 -112 -104 -112t-104 112v36h66v-41q0 -44 36 -44t36 51v34z" />
    <glyph glyph-name="acute" unicode="&#xb4;" horiz-adv-x="250" 
d="M203 848l-102 -111h-74l68 111h108z" />
    <glyph glyph-name="uni00B5" unicode="&#xb5;" 
d="M141 161q0 -69 57 -69t57 69v339h110v-500h-100v52q-31 -60 -100 -60q-10 0 -24 2v-87h-110v593h110v-339z" />
    <glyph glyph-name="paragraph" unicode="&#xb6;" 
d="M356 -65h-80v685h-54v-685h-80l2 330q-62 0 -96 47t-34 124v91q0 173 164 173h178v-765z" />
    <glyph glyph-name="periodcentered" unicode="&#xb7;" horiz-adv-x="186" 
d="M146 403v-106h-106v106h106z" />
    <glyph glyph-name="cedilla" unicode="&#xb8;" horiz-adv-x="250" 
d="M26 -79h74v-8q0 -20 22 -20q25 0 25 24q0 26 -36 26h-10v71h48v-53q38 0 56 -10.5t18 -36.5q0 -37 -25 -49t-76 -12q-96 0 -96 58v10z" />
    <glyph glyph-name="uni00B9" unicode="&#xb9;" horiz-adv-x="200" 
d="M25 739q36 0 51.5 14t26.5 42h46v-444h-70v339h-54v49z" />
    <glyph glyph-name="ordmasculine" unicode="&#xba;" horiz-adv-x="280" 
d="M34 594q0 53 27.5 82t78.5 29t78.5 -29t27.5 -82v-155q0 -53 -27.5 -82t-78.5 -29t-78.5 29t-27.5 82v155zM104 435q0 -43 36 -43t36 43v163q0 43 -36 43t-36 -43v-163zM246 287v-69h-212v69h212z" />
    <glyph glyph-name="guillemotright" unicode="&#xbb;" horiz-adv-x="355" 
d="M115 608l62 -257l-62 -273h-99l61 273l-61 257h99zM277 608l62 -257l-62 -273h-99l61 273l-61 257h99z" />
    <glyph glyph-name="onequarter" unicode="&#xbc;" horiz-adv-x="627" 
d="M65 644q36 0 51.5 14t26.5 42h46v-444h-70v339h-54v49zM436 700h65l-276 -700h-65zM371 144l127 300h76v-300h33v-64h-33v-80h-69v80h-134v64zM505 144v164l-71 -164h71z" />
    <glyph glyph-name="onehalf" unicode="&#xbd;" horiz-adv-x="627" 
d="M65 644q36 0 51.5 14t26.5 42h46v-444h-70v339h-54v49zM406 700h65l-276 -700h-65zM527 337q0 50 -36 50t-36 -44v-47h-66v43q0 111 104 111t104 -111q0 -49 -23.5 -93.5t-51 -70.5t-48 -56t-15.5 -56h132v-63h-202v54q0 36 14 66.5t34.5 53l41 45t34.5 53t14 65.5z" />
    <glyph glyph-name="threequarters" unicode="&#xbe;" horiz-adv-x="627" 
d="M174 399q0 31 -10.5 43.5t-34.5 12.5h-24v63h27q42 0 42 48v25q0 51 -36 51t-36 -44v-28h-66v23q0 112 104 112t104 -112v-11q0 -71 -49 -91q49 -21 49 -93v-35q0 -112 -104 -112t-104 112v36h66v-41q0 -44 36 -44t36 51v34zM446 700h65l-276 -700h-65zM371 144l127 300
h76v-300h33v-64h-33v-80h-69v80h-134v64zM505 144v164l-71 -164h71z" />
    <glyph glyph-name="questiondown" unicode="&#xbf;" horiz-adv-x="360" 
d="M139 594v106h106v-106h-106zM240 545q6 -18 6 -43q0 -51 -19 -93.5t-41 -69t-41 -73.5t-19 -105q0 -69 55 -69t55 69v76h104v-69q0 -85 -41 -130.5t-121 -45.5t-121 45.5t-41 130.5q0 61 20.5 111.5t44.5 78t44.5 67t20.5 81.5q0 22 -4 39h98z" />
    <glyph glyph-name="Agrave" unicode="&#xc0;" horiz-adv-x="407" 
d="M196 848l68 -111h-79l-102 111h113zM396 0h-111l-19 127h-135l-19 -127h-101l112 700h161zM145 222h106l-53 354z" />
    <glyph glyph-name="Aacute" unicode="&#xc1;" horiz-adv-x="407" 
d="M321 848l-102 -111h-74l68 111h108zM396 0h-111l-19 127h-135l-19 -127h-101l112 700h161zM145 222h106l-53 354z" />
    <glyph glyph-name="Acircumflex" unicode="&#xc2;" horiz-adv-x="407" 
d="M65 737l89 111h99l89 -111h-94l-45 55l-44 -55h-94zM396 0h-111l-19 127h-135l-19 -127h-101l112 700h161zM145 222h106l-53 354z" />
    <glyph glyph-name="Atilde" unicode="&#xc3;" horiz-adv-x="407" 
d="M243 813q29 0 43 29l53 -37q-25 -68 -85 -68q-22 0 -49 12.5t-41 12.5q-29 0 -43 -29l-53 37q25 68 85 68q23 0 50 -12.5t40 -12.5zM396 0h-111l-19 127h-135l-19 -127h-101l112 700h161zM145 222h106l-53 354z" />
    <glyph glyph-name="Adieresis" unicode="&#xc4;" horiz-adv-x="407" 
d="M175 833v-96h-96v96h96zM327 833v-96h-96v96h96zM396 0h-111l-19 127h-135l-19 -127h-101l112 700h161zM145 222h106l-53 354z" />
    <glyph glyph-name="Aring" unicode="&#xc5;" horiz-adv-x="407" 
d="M123 814q0 34 23 57t57 23t57 -23t23 -57t-23 -57t-57 -23t-57 23t-23 57zM173 814q0 -13 8.5 -21.5t21.5 -8.5t21.5 8.5t8.5 21.5t-8.5 21.5t-21.5 8.5t-21.5 -8.5t-8.5 -21.5zM396 0h-111l-19 127h-135l-19 -127h-101l112 700h161zM145 222h106l-53 354z" />
    <glyph glyph-name="AE" unicode="&#xc6;" horiz-adv-x="580" 
d="M252 127h-111l-32 -127h-105l187 700h361v-100h-190v-195h151v-100h-151v-205h190v-100h-300v127zM252 222v337l-86 -337h86z" />
    <glyph glyph-name="Ccedilla" unicode="&#xc7;" horiz-adv-x="386" 
d="M359 261v-93q0 -78 -36.5 -123.5t-105.5 -51.5v-32q38 0 56 -10.5t18 -36.5q0 -37 -25 -49t-76 -12q-96 0 -96 58v10h74v-8q0 -20 22 -20q25 0 25 24q0 26 -36 26h-10v51q-138 14 -138 174v364q0 85 42 130.5t122 45.5t122 -45.5t42 -130.5v-68h-104v75q0 69 -57 69
t-57 -69v-378q0 -68 57 -68t57 68v100h104z" />
    <glyph glyph-name="Egrave" unicode="&#xc8;" horiz-adv-x="368" 
d="M181 848l68 -111h-79l-102 111h113zM150 405h151v-100h-151v-205h190v-100h-300v700h300v-100h-190v-195z" />
    <glyph glyph-name="Eacute" unicode="&#xc9;" horiz-adv-x="368" 
d="M307 848l-102 -111h-74l68 111h108zM150 405h151v-100h-151v-205h190v-100h-300v700h300v-100h-190v-195z" />
    <glyph glyph-name="Ecircumflex" unicode="&#xca;" horiz-adv-x="368" 
d="M50 737l89 111h99l89 -111h-94l-45 55l-44 -55h-94zM150 405h151v-100h-151v-205h190v-100h-300v700h300v-100h-190v-195z" />
    <glyph glyph-name="Edieresis" unicode="&#xcb;" horiz-adv-x="368" 
d="M161 833v-96h-96v96h96zM313 833v-96h-96v96h96zM150 405h151v-100h-151v-205h190v-100h-300v700h300v-100h-190v-195z" />
    <glyph glyph-name="Igrave" unicode="&#xcc;" horiz-adv-x="190" 
d="M88 848l68 -111h-79l-102 111h113zM40 700h110v-700h-110v700z" />
    <glyph glyph-name="Iacute" unicode="&#xcd;" horiz-adv-x="190" 
d="M213 848l-102 -111h-74l68 111h108zM40 700h110v-700h-110v700z" />
    <glyph glyph-name="Icircumflex" unicode="&#xce;" horiz-adv-x="190" 
d="M-43 737l89 111h99l89 -111h-94l-45 55l-44 -55h-94zM40 700h110v-700h-110v700z" />
    <glyph glyph-name="Idieresis" unicode="&#xcf;" horiz-adv-x="190" 
d="M67 833v-96h-96v96h96zM219 833v-96h-96v96h96zM40 700h110v-700h-110v700z" />
    <glyph glyph-name="Eth" unicode="&#xd0;" horiz-adv-x="408" 
d="M40 305h-36v90h36v305h174q164 0 164 -173v-354q0 -173 -164 -173h-174v305zM150 600v-205h68v-90h-68v-205h62q56 0 56 68v364q0 68 -56 68h-62z" />
    <glyph glyph-name="Ntilde" unicode="&#xd1;" horiz-adv-x="427" 
d="M253 813q29 0 43 29l53 -37q-25 -68 -85 -68q-22 0 -49 12.5t-41 12.5q-29 0 -43 -29l-53 37q25 68 85 68q23 0 50 -12.5t40 -12.5zM138 507v-507h-99v700h138l113 -419v419h98v-700h-113z" />
    <glyph glyph-name="Ograve" unicode="&#xd2;" 
d="M190 848l68 -111h-79l-102 111h113zM31 532q0 84 43 130t124 46t124 -46t43 -130v-364q0 -84 -43 -130t-124 -46t-124 46t-43 130v364zM141 161q0 -69 57 -69t57 69v378q0 69 -57 69t-57 -69v-378z" />
    <glyph glyph-name="Oacute" unicode="&#xd3;" 
d="M316 848l-102 -111h-74l68 111h108zM31 532q0 84 43 130t124 46t124 -46t43 -130v-364q0 -84 -43 -130t-124 -46t-124 46t-43 130v364zM141 161q0 -69 57 -69t57 69v378q0 69 -57 69t-57 -69v-378z" />
    <glyph glyph-name="Ocircumflex" unicode="&#xd4;" 
d="M59 737l89 111h99l89 -111h-94l-45 55l-44 -55h-94zM31 532q0 84 43 130t124 46t124 -46t43 -130v-364q0 -84 -43 -130t-124 -46t-124 46t-43 130v364zM141 161q0 -69 57 -69t57 69v378q0 69 -57 69t-57 -69v-378z" />
    <glyph glyph-name="Otilde" unicode="&#xd5;" 
d="M238 813q29 0 43 29l53 -37q-25 -68 -85 -68q-23 0 -50 12.5t-40 12.5q-29 0 -43 -29l-53 37q25 68 85 68q22 0 49 -12.5t41 -12.5zM31 532q0 84 43 130t124 46t124 -46t43 -130v-364q0 -84 -43 -130t-124 -46t-124 46t-43 130v364zM141 161q0 -69 57 -69t57 69v378
q0 69 -57 69t-57 -69v-378z" />
    <glyph glyph-name="Odieresis" unicode="&#xd6;" 
d="M170 833v-96h-96v96h96zM322 833v-96h-96v96h96zM31 532q0 84 43 130t124 46t124 -46t43 -130v-364q0 -84 -43 -130t-124 -46t-124 46t-43 130v364zM141 161q0 -69 57 -69t57 69v378q0 69 -57 69t-57 -69v-378z" />
    <glyph glyph-name="multiply" unicode="&#xd7;" 
d="M198 403l106 106l53 -53l-106 -106l106 -106l-53 -53l-106 106l-107 -106l-53 53l106 106l-105 105l53 53z" />
    <glyph glyph-name="Oslash" unicode="&#xd8;" 
d="M66 46q-35 46 -35 122v364q0 84 43 130t124 46q60 0 100 -26l20 55l37 -13l-26 -71q36 -43 36 -121v-364q0 -84 -43 -130t-124 -46q-62 0 -100 25l-20 -54l-37 13zM141 251l112 309q-7 48 -55 48q-57 0 -57 -69v-288zM198 92q57 0 57 69v288l-113 -309q8 -48 56 -48z" />
    <glyph glyph-name="Ugrave" unicode="&#xd9;" horiz-adv-x="398" 
d="M192 848l68 -111h-79l-102 111h113zM145 700v-540q0 -68 57 -68t57 68v540h104v-533q0 -85 -42 -130.5t-122 -45.5t-122 45.5t-42 130.5v533h110z" />
    <glyph glyph-name="Uacute" unicode="&#xda;" horiz-adv-x="398" 
d="M318 848l-102 -111h-74l68 111h108zM145 700v-540q0 -68 57 -68t57 68v540h104v-533q0 -85 -42 -130.5t-122 -45.5t-122 45.5t-42 130.5v533h110z" />
    <glyph glyph-name="Ucircumflex" unicode="&#xdb;" horiz-adv-x="398" 
d="M62 737l89 111h99l89 -111h-94l-45 55l-44 -55h-94zM145 700v-540q0 -68 57 -68t57 68v540h104v-533q0 -85 -42 -130.5t-122 -45.5t-122 45.5t-42 130.5v533h110z" />
    <glyph glyph-name="Udieresis" unicode="&#xdc;" horiz-adv-x="398" 
d="M173 833v-96h-96v96h96zM325 833v-96h-96v96h96zM145 700v-540q0 -68 57 -68t57 68v540h104v-533q0 -85 -42 -130.5t-122 -45.5t-122 45.5t-42 130.5v533h110z" />
    <glyph glyph-name="Yacute" unicode="&#xdd;" 
d="M320 848l-102 -111h-74l68 111h108zM143 232l-139 468h115l84 -319l84 319h105l-139 -468v-232h-110v232z" />
    <glyph glyph-name="Thorn" unicode="&#xde;" horiz-adv-x="377" 
d="M40 700h110v-80h52q164 0 164 -173v-91q0 -173 -164 -173h-52v-183h-110v700zM150 520v-237h52q27 0 40.5 15t13.5 51v105q0 36 -13.5 51t-40.5 15h-52z" />
    <glyph glyph-name="germandbls" unicode="&#xdf;" horiz-adv-x="748" 
d="M26 532q0 85 41 130.5t121 45.5t121 -45.5t41 -130.5v-22h-104v29q0 69 -55 69t-55 -69q0 -29 12 -55t31 -47t42 -41.5t45.5 -43t41.5 -48t31 -60.5t12 -76q0 -85 -42 -130.5t-122 -45.5t-122 45.5t-42 130.5v43h104v-50q0 -68 57 -68t57 68q0 39 -22 73.5t-53.5 62.5
t-63.5 58.5t-54 76t-22 100.5zM400 532q0 85 41 130.5t121 45.5t121 -45.5t41 -130.5v-22h-104v29q0 69 -55 69t-55 -69q0 -29 12 -55t31 -47t42 -41.5t45.5 -43t41.5 -48t31 -60.5t12 -76q0 -85 -42 -130.5t-122 -45.5t-122 45.5t-42 130.5v43h104v-50q0 -68 57 -68t57 68
q0 29 -12 55t-31 47t-41.5 41.5t-45.5 43t-42 48t-31 60.5t-12 76z" />
    <glyph glyph-name="agrave" unicode="&#xe0;" horiz-adv-x="407" 
d="M196 848l68 -111h-79l-102 111h113zM396 0h-111l-19 127h-135l-19 -127h-101l112 700h161zM145 222h106l-53 354z" />
    <glyph glyph-name="aacute" unicode="&#xe1;" horiz-adv-x="407" 
d="M321 848l-102 -111h-74l68 111h108zM396 0h-111l-19 127h-135l-19 -127h-101l112 700h161zM145 222h106l-53 354z" />
    <glyph glyph-name="acircumflex" unicode="&#xe2;" horiz-adv-x="407" 
d="M65 737l89 111h99l89 -111h-94l-45 55l-44 -55h-94zM396 0h-111l-19 127h-135l-19 -127h-101l112 700h161zM145 222h106l-53 354z" />
    <glyph glyph-name="atilde" unicode="&#xe3;" horiz-adv-x="407" 
d="M243 813q29 0 43 29l53 -37q-25 -68 -85 -68q-22 0 -49 12.5t-41 12.5q-29 0 -43 -29l-53 37q25 68 85 68q23 0 50 -12.5t40 -12.5zM396 0h-111l-19 127h-135l-19 -127h-101l112 700h161zM145 222h106l-53 354z" />
    <glyph glyph-name="adieresis" unicode="&#xe4;" horiz-adv-x="407" 
d="M175 833v-96h-96v96h96zM327 833v-96h-96v96h96zM396 0h-111l-19 127h-135l-19 -127h-101l112 700h161zM145 222h106l-53 354z" />
    <glyph glyph-name="aring" unicode="&#xe5;" horiz-adv-x="407" 
d="M123 814q0 34 23 57t57 23t57 -23t23 -57t-23 -57t-57 -23t-57 23t-23 57zM173 814q0 -13 8.5 -21.5t21.5 -8.5t21.5 8.5t8.5 21.5t-8.5 21.5t-21.5 8.5t-21.5 -8.5t-8.5 -21.5zM396 0h-111l-19 127h-135l-19 -127h-101l112 700h161zM145 222h106l-53 354z" />
    <glyph glyph-name="ae" unicode="&#xe6;" horiz-adv-x="580" 
d="M362 405h151v-100h-151v-205h190v-100h-300v127h-111l-32 -127h-105l187 700h361v-100h-190v-195zM252 222v337l-86 -337h86z" />
    <glyph glyph-name="ccedilla" unicode="&#xe7;" horiz-adv-x="386" 
d="M359 261v-93q0 -78 -36.5 -123.5t-105.5 -51.5v-32q38 0 56 -10.5t18 -36.5q0 -37 -25 -49t-76 -12q-96 0 -96 58v10h74v-8q0 -20 22 -20q25 0 25 24q0 26 -36 26h-10v51q-138 14 -138 174v364q0 85 42 130.5t122 45.5t122 -45.5t42 -130.5v-68h-104v75q0 69 -57 69
t-57 -69v-378q0 -68 57 -68t57 68v100h104z" />
    <glyph glyph-name="egrave" unicode="&#xe8;" horiz-adv-x="368" 
d="M181 848l68 -111h-79l-102 111h113zM150 405h151v-100h-151v-205h190v-100h-300v700h300v-100h-190v-195z" />
    <glyph glyph-name="eacute" unicode="&#xe9;" horiz-adv-x="368" 
d="M307 848l-102 -111h-74l68 111h108zM150 405h151v-100h-151v-205h190v-100h-300v700h300v-100h-190v-195z" />
    <glyph glyph-name="ecircumflex" unicode="&#xea;" horiz-adv-x="368" 
d="M50 737l89 111h99l89 -111h-94l-45 55l-44 -55h-94zM150 405h151v-100h-151v-205h190v-100h-300v700h300v-100h-190v-195z" />
    <glyph glyph-name="edieresis" unicode="&#xeb;" horiz-adv-x="368" 
d="M161 833v-96h-96v96h96zM313 833v-96h-96v96h96zM150 405h151v-100h-151v-205h190v-100h-300v700h300v-100h-190v-195z" />
    <glyph glyph-name="igrave" unicode="&#xec;" horiz-adv-x="190" 
d="M88 848l68 -111h-79l-102 111h113zM40 700h110v-700h-110v700z" />
    <glyph glyph-name="iacute" unicode="&#xed;" horiz-adv-x="190" 
d="M213 848l-102 -111h-74l68 111h108zM40 700h110v-700h-110v700z" />
    <glyph glyph-name="icircumflex" unicode="&#xee;" horiz-adv-x="190" 
d="M-43 737l89 111h99l89 -111h-94l-45 55l-44 -55h-94zM40 700h110v-700h-110v700z" />
    <glyph glyph-name="idieresis" unicode="&#xef;" horiz-adv-x="190" 
d="M67 833v-96h-96v96h96zM219 833v-96h-96v96h96zM40 700h110v-700h-110v700z" />
    <glyph glyph-name="eth" unicode="&#xf0;" horiz-adv-x="408" 
d="M40 305h-36v90h36v305h174q164 0 164 -173v-354q0 -173 -164 -173h-174v305zM150 600v-205h68v-90h-68v-205h62q56 0 56 68v364q0 68 -56 68h-62z" />
    <glyph glyph-name="ntilde" unicode="&#xf1;" horiz-adv-x="427" 
d="M253 813q29 0 43 29l53 -37q-25 -68 -85 -68q-22 0 -49 12.5t-41 12.5q-29 0 -43 -29l-53 37q25 68 85 68q23 0 50 -12.5t40 -12.5zM138 507v-507h-99v700h138l113 -419v419h98v-700h-113z" />
    <glyph glyph-name="ograve" unicode="&#xf2;" 
d="M190 848l68 -111h-79l-102 111h113zM31 532q0 84 43 130t124 46t124 -46t43 -130v-364q0 -84 -43 -130t-124 -46t-124 46t-43 130v364zM141 161q0 -69 57 -69t57 69v378q0 69 -57 69t-57 -69v-378z" />
    <glyph glyph-name="oacute" unicode="&#xf3;" 
d="M316 848l-102 -111h-74l68 111h108zM31 532q0 84 43 130t124 46t124 -46t43 -130v-364q0 -84 -43 -130t-124 -46t-124 46t-43 130v364zM141 161q0 -69 57 -69t57 69v378q0 69 -57 69t-57 -69v-378z" />
    <glyph glyph-name="ocircumflex" unicode="&#xf4;" 
d="M59 737l89 111h99l89 -111h-94l-45 55l-44 -55h-94zM31 532q0 84 43 130t124 46t124 -46t43 -130v-364q0 -84 -43 -130t-124 -46t-124 46t-43 130v364zM141 161q0 -69 57 -69t57 69v378q0 69 -57 69t-57 -69v-378z" />
    <glyph glyph-name="otilde" unicode="&#xf5;" 
d="M238 813q29 0 43 29l53 -37q-25 -68 -85 -68q-23 0 -50 12.5t-40 12.5q-29 0 -43 -29l-53 37q25 68 85 68q22 0 49 -12.5t41 -12.5zM31 532q0 84 43 130t124 46t124 -46t43 -130v-364q0 -84 -43 -130t-124 -46t-124 46t-43 130v364zM141 161q0 -69 57 -69t57 69v378
q0 69 -57 69t-57 -69v-378z" />
    <glyph glyph-name="odieresis" unicode="&#xf6;" 
d="M170 833v-96h-96v96h96zM322 833v-96h-96v96h96zM31 532q0 84 43 130t124 46t124 -46t43 -130v-364q0 -84 -43 -130t-124 -46t-124 46t-43 130v364zM141 161q0 -69 57 -69t57 69v378q0 69 -57 69t-57 -69v-378z" />
    <glyph glyph-name="divide" unicode="&#xf7;" 
d="M251 555v-106h-106v106h106zM371 389v-78h-346v78h346zM251 250v-106h-106v106h106z" />
    <glyph glyph-name="oslash" unicode="&#xf8;" 
d="M31 532q0 84 43 130t124 46q60 0 100 -26l20 55l37 -13l-26 -71q36 -43 36 -121v-364q0 -84 -43 -130t-124 -46q-62 0 -100 25l-20 -54l-37 13l25 70q-35 46 -35 122v364zM141 251l112 309q-7 48 -55 48q-57 0 -57 -69v-288zM198 92q57 0 57 69v288l-113 -309
q8 -48 56 -48z" />
    <glyph glyph-name="ugrave" unicode="&#xf9;" horiz-adv-x="398" 
d="M192 848l68 -111h-79l-102 111h113zM145 700v-540q0 -68 57 -68t57 68v540h104v-533q0 -85 -42 -130.5t-122 -45.5t-122 45.5t-42 130.5v533h110z" />
    <glyph glyph-name="uacute" unicode="&#xfa;" horiz-adv-x="398" 
d="M318 848l-102 -111h-74l68 111h108zM145 700v-540q0 -68 57 -68t57 68v540h104v-533q0 -85 -42 -130.5t-122 -45.5t-122 45.5t-42 130.5v533h110z" />
    <glyph glyph-name="ucircumflex" unicode="&#xfb;" horiz-adv-x="398" 
d="M62 737l89 111h99l89 -111h-94l-45 55l-44 -55h-94zM145 700v-540q0 -68 57 -68t57 68v540h104v-533q0 -85 -42 -130.5t-122 -45.5t-122 45.5t-42 130.5v533h110z" />
    <glyph glyph-name="udieresis" unicode="&#xfc;" horiz-adv-x="398" 
d="M173 833v-96h-96v96h96zM325 833v-96h-96v96h96zM145 700v-540q0 -68 57 -68t57 68v540h104v-533q0 -85 -42 -130.5t-122 -45.5t-122 45.5t-42 130.5v533h110z" />
    <glyph glyph-name="yacute" unicode="&#xfd;" 
d="M320 848l-102 -111h-74l68 111h108zM143 232l-139 468h115l84 -319l84 319h105l-139 -468v-232h-110v232z" />
    <glyph glyph-name="thorn" unicode="&#xfe;" horiz-adv-x="377" 
d="M40 700h110v-80h52q164 0 164 -173v-91q0 -173 -164 -173h-52v-183h-110v700zM150 520v-237h52q27 0 40.5 15t13.5 51v105q0 36 -13.5 51t-40.5 15h-52z" />
    <glyph glyph-name="ydieresis" unicode="&#xff;" 
d="M174 833v-96h-96v96h96zM326 833v-96h-96v96h96zM143 232l-139 468h115l84 -319l84 319h105l-139 -468v-232h-110v232z" />
    <glyph glyph-name="Amacron" unicode="&#x100;" horiz-adv-x="407" 
d="M318 819v-78h-230v78h230zM396 0h-111l-19 127h-135l-19 -127h-101l112 700h161zM145 222h106l-53 354z" />
    <glyph glyph-name="amacron" unicode="&#x101;" horiz-adv-x="407" 
d="M318 819v-78h-230v78h230zM396 0h-111l-19 127h-135l-19 -127h-101l112 700h161zM145 222h106l-53 354z" />
    <glyph glyph-name="Abreve" unicode="&#x102;" horiz-adv-x="407" 
d="M250 848h65q0 -54 -29 -84.5t-84 -30.5t-82.5 30.5t-28.5 84.5h65q2 -27 13 -37t33 -10q23 0 34.5 10t13.5 37zM396 0h-111l-19 127h-135l-19 -127h-101l112 700h161zM145 222h106l-53 354z" />
    <glyph glyph-name="abreve" unicode="&#x103;" horiz-adv-x="407" 
d="M250 848h65q0 -54 -29 -84.5t-84 -30.5t-82.5 30.5t-28.5 84.5h65q2 -27 13 -37t33 -10q23 0 34.5 10t13.5 37zM396 0h-111l-19 127h-135l-19 -127h-101l112 700h161zM145 222h106l-53 354z" />
    <glyph glyph-name="Aogonek" unicode="&#x104;" horiz-adv-x="407" 
d="M396 0h-41q-30 -25 -30 -58q0 -13 10 -20.5t25 -7.5q14 0 36 6v-56q-28 -11 -68 -11q-41 0 -64 16t-23 46q0 42 47 73l-22 139h-135l-19 -127h-101l112 700h161zM145 222h106l-53 354z" />
    <glyph glyph-name="aogonek" unicode="&#x105;" horiz-adv-x="407" 
d="M396 0h-41q-30 -25 -30 -58q0 -13 10 -20.5t25 -7.5q14 0 36 6v-56q-28 -11 -68 -11q-41 0 -64 16t-23 46q0 42 47 73l-22 139h-135l-19 -127h-101l112 700h161zM145 222h106l-53 354z" />
    <glyph glyph-name="Cacute" unicode="&#x106;" horiz-adv-x="386" 
d="M313 848l-102 -111h-74l68 111h108zM359 261v-93q0 -85 -42 -130.5t-122 -45.5t-122 45.5t-42 130.5v364q0 85 42 130.5t122 45.5t122 -45.5t42 -130.5v-68h-104v75q0 69 -57 69t-57 -69v-378q0 -68 57 -68t57 68v100h104z" />
    <glyph glyph-name="cacute" unicode="&#x107;" horiz-adv-x="386" 
d="M313 848l-102 -111h-74l68 111h108zM359 261v-93q0 -85 -42 -130.5t-122 -45.5t-122 45.5t-42 130.5v364q0 85 42 130.5t122 45.5t122 -45.5t42 -130.5v-68h-104v75q0 69 -57 69t-57 -69v-378q0 -68 57 -68t57 68v100h104z" />
    <glyph glyph-name="Ccircumflex" unicode="&#x108;" horiz-adv-x="386" 
d="M56 737l89 111h99l89 -111h-94l-45 55l-44 -55h-94zM359 261v-93q0 -85 -42 -130.5t-122 -45.5t-122 45.5t-42 130.5v364q0 85 42 130.5t122 45.5t122 -45.5t42 -130.5v-68h-104v75q0 69 -57 69t-57 -69v-378q0 -68 57 -68t57 68v100h104z" />
    <glyph glyph-name="ccircumflex" unicode="&#x109;" horiz-adv-x="386" 
d="M56 737l89 111h99l89 -111h-94l-45 55l-44 -55h-94zM359 261v-93q0 -85 -42 -130.5t-122 -45.5t-122 45.5t-42 130.5v364q0 85 42 130.5t122 45.5t122 -45.5t42 -130.5v-68h-104v75q0 69 -57 69t-57 -69v-378q0 -68 57 -68t57 68v100h104z" />
    <glyph glyph-name="Cdotaccent" unicode="&#x10a;" horiz-adv-x="386" 
d="M243 833v-96h-96v96h96zM359 261v-93q0 -85 -42 -130.5t-122 -45.5t-122 45.5t-42 130.5v364q0 85 42 130.5t122 45.5t122 -45.5t42 -130.5v-68h-104v75q0 69 -57 69t-57 -69v-378q0 -68 57 -68t57 68v100h104z" />
    <glyph glyph-name="cdotaccent" unicode="&#x10b;" horiz-adv-x="386" 
d="M243 833v-96h-96v96h96zM359 261v-93q0 -85 -42 -130.5t-122 -45.5t-122 45.5t-42 130.5v364q0 85 42 130.5t122 45.5t122 -45.5t42 -130.5v-68h-104v75q0 69 -57 69t-57 -69v-378q0 -68 57 -68t57 68v100h104z" />
    <glyph glyph-name="Ccaron" unicode="&#x10c;" horiz-adv-x="386" 
d="M150 848l44 -56l45 56h94l-89 -111h-99l-89 111h94zM359 261v-93q0 -85 -42 -130.5t-122 -45.5t-122 45.5t-42 130.5v364q0 85 42 130.5t122 45.5t122 -45.5t42 -130.5v-68h-104v75q0 69 -57 69t-57 -69v-378q0 -68 57 -68t57 68v100h104z" />
    <glyph glyph-name="ccaron" unicode="&#x10d;" horiz-adv-x="386" 
d="M150 848l44 -56l45 56h94l-89 -111h-99l-89 111h94zM359 261v-93q0 -85 -42 -130.5t-122 -45.5t-122 45.5t-42 130.5v364q0 85 42 130.5t122 45.5t122 -45.5t42 -130.5v-68h-104v75q0 69 -57 69t-57 -69v-378q0 -68 57 -68t57 68v100h104z" />
    <glyph glyph-name="Dcaron" unicode="&#x10e;" horiz-adv-x="408" 
d="M150 848l44 -56l45 56h94l-89 -111h-99l-89 111h94zM40 700h174q164 0 164 -173v-354q0 -173 -164 -173h-174v700zM150 600v-500h62q56 0 56 68v364q0 68 -56 68h-62z" />
    <glyph glyph-name="dcaron" unicode="&#x10f;" horiz-adv-x="408" 
d="M150 848l44 -56l45 56h94l-89 -111h-99l-89 111h94zM40 700h174q164 0 164 -173v-354q0 -173 -164 -173h-174v700zM150 600v-500h62q56 0 56 68v364q0 68 -56 68h-62z" />
    <glyph glyph-name="Dcroat" unicode="&#x110;" horiz-adv-x="408" 
d="M40 305h-36v90h36v305h174q164 0 164 -173v-354q0 -173 -164 -173h-174v305zM150 600v-205h68v-90h-68v-205h62q56 0 56 68v364q0 68 -56 68h-62z" />
    <glyph glyph-name="dcroat" unicode="&#x111;" horiz-adv-x="408" 
d="M40 305h-36v90h36v305h174q164 0 164 -173v-354q0 -173 -164 -173h-174v305zM150 600v-205h68v-90h-68v-205h62q56 0 56 68v364q0 68 -56 68h-62z" />
    <glyph glyph-name="Emacron" unicode="&#x112;" horiz-adv-x="368" 
d="M303 819v-78h-230v78h230zM150 405h151v-100h-151v-205h190v-100h-300v700h300v-100h-190v-195z" />
    <glyph glyph-name="emacron" unicode="&#x113;" horiz-adv-x="368" 
d="M303 819v-78h-230v78h230zM150 405h151v-100h-151v-205h190v-100h-300v700h300v-100h-190v-195z" />
    <glyph glyph-name="Ebreve" unicode="&#x114;" horiz-adv-x="368" 
d="M235 848h65q0 -54 -29 -84.5t-84 -30.5t-82.5 30.5t-28.5 84.5h65q2 -27 13 -37t33 -10q23 0 34.5 10t13.5 37zM150 405h151v-100h-151v-205h190v-100h-300v700h300v-100h-190v-195z" />
    <glyph glyph-name="ebreve" unicode="&#x115;" horiz-adv-x="368" 
d="M235 848h65q0 -54 -29 -84.5t-84 -30.5t-82.5 30.5t-28.5 84.5h65q2 -27 13 -37t33 -10q23 0 34.5 10t13.5 37zM150 405h151v-100h-151v-205h190v-100h-300v700h300v-100h-190v-195z" />
    <glyph glyph-name="Edotaccent" unicode="&#x116;" horiz-adv-x="368" 
d="M236 833v-96h-96v96h96zM150 405h151v-100h-151v-205h190v-100h-300v700h300v-100h-190v-195z" />
    <glyph glyph-name="edotaccent" unicode="&#x117;" horiz-adv-x="368" 
d="M236 833v-96h-96v96h96zM150 405h151v-100h-151v-205h190v-100h-300v700h300v-100h-190v-195z" />
    <glyph glyph-name="Eogonek" unicode="&#x118;" horiz-adv-x="368" 
d="M150 405h151v-100h-151v-205h190v-100h-41q-30 -25 -30 -58q0 -13 10 -20.5t25 -7.5q14 0 36 6v-56q-28 -11 -68 -11q-41 0 -64 16t-23 46q0 51 67 85h-212v700h300v-100h-190v-195z" />
    <glyph glyph-name="eogonek" unicode="&#x119;" horiz-adv-x="368" 
d="M150 405h151v-100h-151v-205h190v-100h-41q-30 -25 -30 -58q0 -13 10 -20.5t25 -7.5q14 0 36 6v-56q-28 -11 -68 -11q-41 0 -64 16t-23 46q0 51 67 85h-212v700h300v-100h-190v-195z" />
    <glyph glyph-name="Ecaron" unicode="&#x11a;" horiz-adv-x="368" 
d="M143 848l44 -56l45 56h94l-89 -111h-99l-89 111h94zM150 405h151v-100h-151v-205h190v-100h-300v700h300v-100h-190v-195z" />
    <glyph glyph-name="ecaron" unicode="&#x11b;" horiz-adv-x="368" 
d="M143 848l44 -56l45 56h94l-89 -111h-99l-89 111h94zM150 405h151v-100h-151v-205h190v-100h-300v700h300v-100h-190v-195z" />
    <glyph glyph-name="Gcircumflex" unicode="&#x11c;" horiz-adv-x="390" 
d="M56 737l89 111h99l89 -111h-94l-45 55l-44 -55h-94zM205 390h154v-222q0 -85 -42 -130.5t-122 -45.5t-122 45.5t-42 130.5v364q0 85 42 130.5t122 45.5t122 -45.5t42 -130.5v-68h-104v75q0 69 -57 69t-57 -69v-378q0 -68 57 -68t57 68v129h-50v100z" />
    <glyph glyph-name="gcircumflex" unicode="&#x11d;" horiz-adv-x="390" 
d="M56 737l89 111h99l89 -111h-94l-45 55l-44 -55h-94zM205 390h154v-222q0 -85 -42 -130.5t-122 -45.5t-122 45.5t-42 130.5v364q0 85 42 130.5t122 45.5t122 -45.5t42 -130.5v-68h-104v75q0 69 -57 69t-57 -69v-378q0 -68 57 -68t57 68v129h-50v100z" />
    <glyph glyph-name="Gbreve" unicode="&#x11e;" horiz-adv-x="390" 
d="M241 848h65q0 -54 -29 -84.5t-84 -30.5t-82.5 30.5t-28.5 84.5h65q2 -27 13 -37t33 -10q23 0 34.5 10t13.5 37zM205 390h154v-222q0 -85 -42 -130.5t-122 -45.5t-122 45.5t-42 130.5v364q0 85 42 130.5t122 45.5t122 -45.5t42 -130.5v-68h-104v75q0 69 -57 69t-57 -69
v-378q0 -68 57 -68t57 68v129h-50v100z" />
    <glyph glyph-name="gbreve" unicode="&#x11f;" horiz-adv-x="390" 
d="M241 848h65q0 -54 -29 -84.5t-84 -30.5t-82.5 30.5t-28.5 84.5h65q2 -27 13 -37t33 -10q23 0 34.5 10t13.5 37zM205 390h154v-222q0 -85 -42 -130.5t-122 -45.5t-122 45.5t-42 130.5v364q0 85 42 130.5t122 45.5t122 -45.5t42 -130.5v-68h-104v75q0 69 -57 69t-57 -69
v-378q0 -68 57 -68t57 68v129h-50v100z" />
    <glyph glyph-name="Gdotaccent" unicode="&#x120;" horiz-adv-x="390" 
d="M242 833v-96h-96v96h96zM205 390h154v-222q0 -85 -42 -130.5t-122 -45.5t-122 45.5t-42 130.5v364q0 85 42 130.5t122 45.5t122 -45.5t42 -130.5v-68h-104v75q0 69 -57 69t-57 -69v-378q0 -68 57 -68t57 68v129h-50v100z" />
    <glyph glyph-name="gdotaccent" unicode="&#x121;" horiz-adv-x="390" 
d="M242 833v-96h-96v96h96zM205 390h154v-222q0 -85 -42 -130.5t-122 -45.5t-122 45.5t-42 130.5v364q0 85 42 130.5t122 45.5t122 -45.5t42 -130.5v-68h-104v75q0 69 -57 69t-57 -69v-378q0 -68 57 -68t57 68v129h-50v100z" />
    <glyph glyph-name="uni0122" unicode="&#x122;" horiz-adv-x="390" 
d="M205 390h154v-222q0 -85 -42 -130.5t-122 -45.5t-122 45.5t-42 130.5v364q0 85 42 130.5t122 45.5t122 -45.5t42 -130.5v-68h-104v75q0 69 -57 69t-57 -69v-378q0 -68 57 -68t57 68v129h-50v100zM149 -125v92h92v-82l-43 -64h-39l26 54h-36z" />
    <glyph glyph-name="uni0123" unicode="&#x123;" horiz-adv-x="390" 
d="M205 390h154v-222q0 -85 -42 -130.5t-122 -45.5t-122 45.5t-42 130.5v364q0 85 42 130.5t122 45.5t122 -45.5t42 -130.5v-68h-104v75q0 69 -57 69t-57 -69v-378q0 -68 57 -68t57 68v129h-50v100zM149 -125v92h92v-82l-43 -64h-39l26 54h-36z" />
    <glyph glyph-name="Hcircumflex" unicode="&#x124;" horiz-adv-x="427" 
d="M75 737l89 111h99l89 -111h-94l-45 55l-44 -55h-94zM150 0h-110v700h110v-300h125v300h112v-700h-112v300h-125v-300z" />
    <glyph glyph-name="hcircumflex" unicode="&#x125;" horiz-adv-x="427" 
d="M75 737l89 111h99l89 -111h-94l-45 55l-44 -55h-94zM150 0h-110v700h110v-300h125v300h112v-700h-112v300h-125v-300z" />
    <glyph glyph-name="Hbar" unicode="&#x126;" horiz-adv-x="437" 
d="M155 0h-110v502h-35v82h35v116h110v-116h125v116h112v-116h35v-82h-35v-502h-112v300h-125v-300zM280 400v102h-125v-102h125z" />
    <glyph glyph-name="hbar" unicode="&#x127;" horiz-adv-x="437" 
d="M155 0h-110v502h-35v82h35v116h110v-116h125v116h112v-116h35v-82h-35v-502h-112v300h-125v-300zM280 400v102h-125v-102h125z" />
    <glyph glyph-name="Itilde" unicode="&#x128;" horiz-adv-x="190" 
d="M135 813q29 0 43 29l53 -37q-25 -68 -85 -68q-22 0 -49 12.5t-41 12.5q-29 0 -43 -29l-53 37q25 68 85 68q23 0 50 -12.5t40 -12.5zM40 700h110v-700h-110v700z" />
    <glyph glyph-name="itilde" unicode="&#x129;" horiz-adv-x="190" 
d="M135 813q29 0 43 29l53 -37q-25 -68 -85 -68q-22 0 -49 12.5t-41 12.5q-29 0 -43 -29l-53 37q25 68 85 68q23 0 50 -12.5t40 -12.5zM40 700h110v-700h-110v700z" />
    <glyph glyph-name="Imacron" unicode="&#x12a;" horiz-adv-x="190" 
d="M210 819v-78h-230v78h230zM40 700h110v-700h-110v700z" />
    <glyph glyph-name="imacron" unicode="&#x12b;" horiz-adv-x="190" 
d="M210 819v-78h-230v78h230zM40 700h110v-700h-110v700z" />
    <glyph glyph-name="Ibreve" unicode="&#x12c;" horiz-adv-x="190" 
d="M142 848h65q0 -54 -29 -84.5t-84 -30.5t-82.5 30.5t-28.5 84.5h65q2 -27 13 -37t33 -10q23 0 34.5 10t13.5 37zM40 700h110v-700h-110v700z" />
    <glyph glyph-name="ibreve" unicode="&#x12d;" horiz-adv-x="190" 
d="M142 848h65q0 -54 -29 -84.5t-84 -30.5t-82.5 30.5t-28.5 84.5h65q2 -27 13 -37t33 -10q23 0 34.5 10t13.5 37zM40 700h110v-700h-110v700z" />
    <glyph glyph-name="Iogonek" unicode="&#x12e;" horiz-adv-x="190" 
d="M40 700h110v-700h-20q-30 -25 -30 -58q0 -13 10 -20.5t25 -7.5q14 0 36 6v-56q-28 -11 -68 -11q-41 0 -64 16t-23 46q0 51 67 85h-43v700z" />
    <glyph glyph-name="iogonek" unicode="&#x12f;" horiz-adv-x="190" 
d="M40 700h110v-700h-20q-30 -25 -30 -58q0 -13 10 -20.5t25 -7.5q14 0 36 6v-56q-28 -11 -68 -11q-41 0 -64 16t-23 46q0 51 67 85h-43v700z" />
    <glyph glyph-name="Idotaccent" unicode="&#x130;" horiz-adv-x="190" 
d="M143 833v-96h-96v96h96zM40 700h110v-700h-110v700z" />
    <glyph glyph-name="dotlessi" unicode="&#x131;" horiz-adv-x="190" 
d="M40 700h110v-700h-110v700z" />
    <glyph glyph-name="IJ" unicode="&#x132;" horiz-adv-x="446" 
d="M40 700h110v-700h-110v700zM200 100q12 -1 38 -1q63 0 63 67v534h110v-526q0 -176 -158 -176q-35 0 -53 2v100z" />
    <glyph glyph-name="ij" unicode="&#x133;" horiz-adv-x="446" 
d="M40 700h110v-700h-110v700zM200 100q12 -1 38 -1q63 0 63 67v534h110v-526q0 -176 -158 -176q-35 0 -53 2v100z" />
    <glyph glyph-name="Jcircumflex" unicode="&#x134;" horiz-adv-x="256" 
d="M9 737l89 111h99l89 -111h-94l-45 55l-44 -55h-94zM10 100q12 -1 38 -1q63 0 63 67v534h110v-526q0 -176 -158 -176q-35 0 -53 2v100z" />
    <glyph glyph-name="jcircumflex" unicode="&#x135;" horiz-adv-x="256" 
d="M9 737l89 111h99l89 -111h-94l-45 55l-44 -55h-94zM10 100q12 -1 38 -1q63 0 63 67v534h110v-526q0 -176 -158 -176q-35 0 -53 2v100z" />
    <glyph glyph-name="uni0136" unicode="&#x136;" horiz-adv-x="414" 
d="M184 279l-34 -64v-215h-110v700h110v-305l144 305h110l-153 -312l153 -388h-113zM169 -125v92h92v-82l-43 -64h-39l26 54h-36z" />
    <glyph glyph-name="uni0137" unicode="&#x137;" horiz-adv-x="414" 
d="M184 279l-34 -64v-215h-110v700h110v-305l144 305h110l-153 -312l153 -388h-113zM169 -125v92h92v-82l-43 -64h-39l26 54h-36z" />
    <glyph glyph-name="kgreenlandic" unicode="&#x138;" horiz-adv-x="414" 
d="M184 279l-34 -64v-215h-110v700h110v-305l144 305h110l-153 -312l153 -388h-113z" />
    <glyph glyph-name="Lacute" unicode="&#x139;" horiz-adv-x="339" 
d="M248 848l-102 -111h-74l68 111h108zM40 700h110v-600h181v-100h-291v700z" />
    <glyph glyph-name="lacute" unicode="&#x13a;" horiz-adv-x="339" 
d="M248 848l-102 -111h-74l68 111h108zM40 700h110v-600h181v-100h-291v700z" />
    <glyph glyph-name="uni013B" unicode="&#x13b;" horiz-adv-x="339" 
d="M40 700h110v-600h181v-100h-291v700zM140 -125v92h92v-82l-43 -64h-39l26 54h-36z" />
    <glyph glyph-name="uni013C" unicode="&#x13c;" horiz-adv-x="339" 
d="M40 700h110v-600h181v-100h-291v700zM140 -125v92h92v-82l-43 -64h-39l26 54h-36z" />
    <glyph glyph-name="Lcaron" unicode="&#x13d;" horiz-adv-x="339" 
d="M40 700h110v-600h181v-100h-291v700zM211 594v106h106v-95l-48 -111h-45l29 100h-42z" />
    <glyph glyph-name="lcaron" unicode="&#x13e;" horiz-adv-x="339" 
d="M40 700h110v-600h181v-100h-291v700zM211 594v106h106v-95l-48 -111h-45l29 100h-42z" />
    <glyph glyph-name="Ldot" unicode="&#x13f;" horiz-adv-x="339" 
d="M40 700h110v-600h181v-100h-291v700zM316 403v-106h-106v106h106z" />
    <glyph glyph-name="ldot" unicode="&#x140;" horiz-adv-x="339" 
d="M40 700h110v-600h181v-100h-291v700zM316 403v-106h-106v106h106z" />
    <glyph glyph-name="Lslash" unicode="&#x141;" horiz-adv-x="348" 
d="M0 195l49 52v453h110v-335l121 130v-100l-121 -130v-165h181v-100h-291v147l-49 -52v100z" />
    <glyph glyph-name="lslash" unicode="&#x142;" horiz-adv-x="348" 
d="M0 195l49 52v453h110v-335l121 130v-100l-121 -130v-165h181v-100h-291v147l-49 -52v100z" />
    <glyph glyph-name="Nacute" unicode="&#x143;" horiz-adv-x="427" 
d="M331 848l-102 -111h-74l68 111h108zM138 507v-507h-99v700h138l113 -419v419h98v-700h-113z" />
    <glyph glyph-name="nacute" unicode="&#x144;" horiz-adv-x="427" 
d="M331 848l-102 -111h-74l68 111h108zM138 507v-507h-99v700h138l113 -419v419h98v-700h-113z" />
    <glyph glyph-name="uni0145" unicode="&#x145;" horiz-adv-x="427" 
d="M138 507v-507h-99v700h138l113 -419v419h98v-700h-113zM167 -125v92h92v-82l-43 -64h-39l26 54h-36z" />
    <glyph glyph-name="uni0146" unicode="&#x146;" horiz-adv-x="427" 
d="M138 507v-507h-99v700h138l113 -419v419h98v-700h-113zM167 -125v92h92v-82l-43 -64h-39l26 54h-36z" />
    <glyph glyph-name="Ncaron" unicode="&#x147;" horiz-adv-x="427" 
d="M169 848l44 -56l45 56h94l-89 -111h-99l-89 111h94zM138 507v-507h-99v700h138l113 -419v419h98v-700h-113z" />
    <glyph glyph-name="ncaron" unicode="&#x148;" horiz-adv-x="427" 
d="M169 848l44 -56l45 56h94l-89 -111h-99l-89 111h94zM138 507v-507h-99v700h138l113 -419v419h98v-700h-113z" />
    <glyph glyph-name="napostrophe" unicode="&#x149;" horiz-adv-x="543" 
d="M5 594v106h106v-95l-48 -111h-45l29 100h-42zM254 507v-507h-99v700h138l113 -419v419h98v-700h-113z" />
    <glyph glyph-name="Omacron" unicode="&#x14c;" 
d="M313 819v-78h-230v78h230zM31 532q0 84 43 130t124 46t124 -46t43 -130v-364q0 -84 -43 -130t-124 -46t-124 46t-43 130v364zM141 161q0 -69 57 -69t57 69v378q0 69 -57 69t-57 -69v-378z" />
    <glyph glyph-name="omacron" unicode="&#x14d;" 
d="M313 819v-78h-230v78h230zM31 532q0 84 43 130t124 46t124 -46t43 -130v-364q0 -84 -43 -130t-124 -46t-124 46t-43 130v364zM141 161q0 -69 57 -69t57 69v378q0 69 -57 69t-57 -69v-378z" />
    <glyph glyph-name="Obreve" unicode="&#x14e;" 
d="M245 848h65q0 -54 -29 -84.5t-84 -30.5t-82.5 30.5t-28.5 84.5h65q2 -27 13 -37t33 -10q23 0 34.5 10t13.5 37zM31 532q0 84 43 130t124 46t124 -46t43 -130v-364q0 -84 -43 -130t-124 -46t-124 46t-43 130v364zM141 161q0 -69 57 -69t57 69v378q0 69 -57 69t-57 -69
v-378z" />
    <glyph glyph-name="obreve" unicode="&#x14f;" 
d="M245 848h65q0 -54 -29 -84.5t-84 -30.5t-82.5 30.5t-28.5 84.5h65q2 -27 13 -37t33 -10q23 0 34.5 10t13.5 37zM31 532q0 84 43 130t124 46t124 -46t43 -130v-364q0 -84 -43 -130t-124 -46t-124 46t-43 130v364zM141 161q0 -69 57 -69t57 69v378q0 69 -57 69t-57 -69
v-378z" />
    <glyph glyph-name="Ohungarumlaut" unicode="&#x150;" 
d="M232 848l-83 -111h-67l50 111h100zM363 848l-84 -111h-66l49 111h101zM31 532q0 84 43 130t124 46t124 -46t43 -130v-364q0 -84 -43 -130t-124 -46t-124 46t-43 130v364zM141 161q0 -69 57 -69t57 69v378q0 69 -57 69t-57 -69v-378z" />
    <glyph glyph-name="ohungarumlaut" unicode="&#x151;" 
d="M232 848l-83 -111h-67l50 111h100zM363 848l-84 -111h-66l49 111h101zM31 532q0 84 43 130t124 46t124 -46t43 -130v-364q0 -84 -43 -130t-124 -46t-124 46t-43 130v364zM141 161q0 -69 57 -69t57 69v378q0 69 -57 69t-57 -69v-378z" />
    <glyph glyph-name="OE" unicode="&#x152;" horiz-adv-x="586" 
d="M368 405h151v-100h-151v-205h190v-100h-364q-164 0 -164 173v354q0 173 164 173h364v-100h-190v-195zM258 600h-62q-56 0 -56 -68v-364q0 -68 56 -68h62v500z" />
    <glyph glyph-name="oe" unicode="&#x153;" horiz-adv-x="586" 
d="M368 405h151v-100h-151v-205h190v-100h-364q-164 0 -164 173v354q0 173 164 173h364v-100h-190v-195zM258 600h-62q-56 0 -56 -68v-364q0 -68 56 -68h62v500z" />
    <glyph glyph-name="Racute" unicode="&#x154;" horiz-adv-x="402" 
d="M313 848l-102 -111h-74l68 111h108zM270 0q-10 30 -10 86v110q0 48 -17 68.5t-55 20.5h-38v-285h-110v700h166q85 0 124 -39.5t39 -121.5v-55q0 -108 -72 -142q73 -31 73 -149v-108q0 -57 12 -85h-112zM150 600v-215h43q33 0 49.5 17t16.5 57v69q0 72 -56 72h-53z" />
    <glyph glyph-name="racute" unicode="&#x155;" horiz-adv-x="402" 
d="M313 848l-102 -111h-74l68 111h108zM270 0q-10 30 -10 86v110q0 48 -17 68.5t-55 20.5h-38v-285h-110v700h166q85 0 124 -39.5t39 -121.5v-55q0 -108 -72 -142q73 -31 73 -149v-108q0 -57 12 -85h-112zM150 600v-215h43q33 0 49.5 17t16.5 57v69q0 72 -56 72h-53z" />
    <glyph glyph-name="uni0156" unicode="&#x156;" horiz-adv-x="402" 
d="M270 0q-10 30 -10 86v110q0 48 -17 68.5t-55 20.5h-38v-285h-110v700h166q85 0 124 -39.5t39 -121.5v-55q0 -108 -72 -142q73 -31 73 -149v-108q0 -57 12 -85h-112zM150 600v-215h43q33 0 49.5 17t16.5 57v69q0 72 -56 72h-53zM157 -125v92h92v-82l-43 -64h-39l26 54h-36
z" />
    <glyph glyph-name="uni0157" unicode="&#x157;" horiz-adv-x="402" 
d="M270 0q-10 30 -10 86v110q0 48 -17 68.5t-55 20.5h-38v-285h-110v700h166q85 0 124 -39.5t39 -121.5v-55q0 -108 -72 -142q73 -31 73 -149v-108q0 -57 12 -85h-112zM150 600v-215h43q33 0 49.5 17t16.5 57v69q0 72 -56 72h-53zM157 -125v92h92v-82l-43 -64h-39l26 54h-36
z" />
    <glyph glyph-name="Rcaron" unicode="&#x158;" horiz-adv-x="402" 
d="M150 848l44 -56l45 56h94l-89 -111h-99l-89 111h94zM270 0q-10 30 -10 86v110q0 48 -17 68.5t-55 20.5h-38v-285h-110v700h166q85 0 124 -39.5t39 -121.5v-55q0 -108 -72 -142q73 -31 73 -149v-108q0 -57 12 -85h-112zM150 600v-215h43q33 0 49.5 17t16.5 57v69
q0 72 -56 72h-53z" />
    <glyph glyph-name="rcaron" unicode="&#x159;" horiz-adv-x="402" 
d="M150 848l44 -56l45 56h94l-89 -111h-99l-89 111h94zM270 0q-10 30 -10 86v110q0 48 -17 68.5t-55 20.5h-38v-285h-110v700h166q85 0 124 -39.5t39 -121.5v-55q0 -108 -72 -142q73 -31 73 -149v-108q0 -57 12 -85h-112zM150 600v-215h43q33 0 49.5 17t16.5 57v69
q0 72 -56 72h-53z" />
    <glyph glyph-name="Sacute" unicode="&#x15a;" horiz-adv-x="374" 
d="M305 848l-102 -111h-74l68 111h108zM26 532q0 85 41 130.5t121 45.5t121 -45.5t41 -130.5v-22h-104v29q0 69 -55 69t-55 -69q0 -29 12 -55t31 -47t42 -41.5t45.5 -43t41.5 -48t31 -60.5t12 -76q0 -85 -42 -130.5t-122 -45.5t-122 45.5t-42 130.5v43h104v-50q0 -68 57 -68
t57 68q0 39 -22 73.5t-53.5 62.5t-63.5 58.5t-54 76t-22 100.5z" />
    <glyph glyph-name="sacute" unicode="&#x15b;" horiz-adv-x="374" 
d="M305 848l-102 -111h-74l68 111h108zM26 532q0 85 41 130.5t121 45.5t121 -45.5t41 -130.5v-22h-104v29q0 69 -55 69t-55 -69q0 -29 12 -55t31 -47t42 -41.5t45.5 -43t41.5 -48t31 -60.5t12 -76q0 -85 -42 -130.5t-122 -45.5t-122 45.5t-42 130.5v43h104v-50q0 -68 57 -68
t57 68q0 39 -22 73.5t-53.5 62.5t-63.5 58.5t-54 76t-22 100.5z" />
    <glyph glyph-name="Scircumflex" unicode="&#x15c;" horiz-adv-x="374" 
d="M48 737l89 111h99l89 -111h-94l-45 55l-44 -55h-94zM26 532q0 85 41 130.5t121 45.5t121 -45.5t41 -130.5v-22h-104v29q0 69 -55 69t-55 -69q0 -29 12 -55t31 -47t42 -41.5t45.5 -43t41.5 -48t31 -60.5t12 -76q0 -85 -42 -130.5t-122 -45.5t-122 45.5t-42 130.5v43h104
v-50q0 -68 57 -68t57 68q0 39 -22 73.5t-53.5 62.5t-63.5 58.5t-54 76t-22 100.5z" />
    <glyph glyph-name="scircumflex" unicode="&#x15d;" horiz-adv-x="374" 
d="M48 737l89 111h99l89 -111h-94l-45 55l-44 -55h-94zM26 532q0 85 41 130.5t121 45.5t121 -45.5t41 -130.5v-22h-104v29q0 69 -55 69t-55 -69q0 -29 12 -55t31 -47t42 -41.5t45.5 -43t41.5 -48t31 -60.5t12 -76q0 -85 -42 -130.5t-122 -45.5t-122 45.5t-42 130.5v43h104
v-50q0 -68 57 -68t57 68q0 39 -22 73.5t-53.5 62.5t-63.5 58.5t-54 76t-22 100.5z" />
    <glyph glyph-name="Scedilla" unicode="&#x15e;" horiz-adv-x="374" 
d="M26 532q0 85 41 130.5t121 45.5t121 -45.5t41 -130.5v-22h-104v29q0 69 -55 69t-55 -69q0 -29 12 -55t31 -47t42 -41.5t45.5 -43t41.5 -48t31 -60.5t12 -76q0 -80 -37 -125t-109 -50v-32q38 0 56 -10.5t18 -36.5q0 -37 -25 -49t-76 -12q-96 0 -96 58v10h74v-8
q0 -20 22 -20q25 0 25 24q0 26 -36 26h-10v51q-134 17 -134 174v43h104v-50q0 -68 57 -68t57 68q0 39 -22 73.5t-53.5 62.5t-63.5 58.5t-54 76t-22 100.5z" />
    <glyph glyph-name="scedilla" unicode="&#x15f;" horiz-adv-x="374" 
d="M26 532q0 85 41 130.5t121 45.5t121 -45.5t41 -130.5v-22h-104v29q0 69 -55 69t-55 -69q0 -29 12 -55t31 -47t42 -41.5t45.5 -43t41.5 -48t31 -60.5t12 -76q0 -80 -37 -125t-109 -50v-32q38 0 56 -10.5t18 -36.5q0 -37 -25 -49t-76 -12q-96 0 -96 58v10h74v-8
q0 -20 22 -20q25 0 25 24q0 26 -36 26h-10v51q-134 17 -134 174v43h104v-50q0 -68 57 -68t57 68q0 39 -22 73.5t-53.5 62.5t-63.5 58.5t-54 76t-22 100.5z" />
    <glyph glyph-name="Scaron" unicode="&#x160;" horiz-adv-x="374" 
d="M143 848l44 -56l45 56h94l-89 -111h-99l-89 111h94zM26 532q0 85 41 130.5t121 45.5t121 -45.5t41 -130.5v-22h-104v29q0 69 -55 69t-55 -69q0 -29 12 -55t31 -47t42 -41.5t45.5 -43t41.5 -48t31 -60.5t12 -76q0 -85 -42 -130.5t-122 -45.5t-122 45.5t-42 130.5v43h104
v-50q0 -68 57 -68t57 68q0 39 -22 73.5t-53.5 62.5t-63.5 58.5t-54 76t-22 100.5z" />
    <glyph glyph-name="scaron" unicode="&#x161;" horiz-adv-x="374" 
d="M142 848l44 -56l45 56h94l-89 -111h-99l-89 111h94zM26 532q0 85 41 130.5t121 45.5t121 -45.5t41 -130.5v-22h-104v29q0 69 -55 69t-55 -69q0 -29 12 -55t31 -47t42 -41.5t45.5 -43t41.5 -48t31 -60.5t12 -76q0 -85 -42 -130.5t-122 -45.5t-122 45.5t-42 130.5v43h104
v-50q0 -68 57 -68t57 68q0 39 -22 73.5t-53.5 62.5t-63.5 58.5t-54 76t-22 100.5z" />
    <glyph glyph-name="uni0162" unicode="&#x162;" horiz-adv-x="356" 
d="M88 -99h64v-10q0 -18 21 -18q26 0 26 26q0 28 -36 28h-11v73h-29v600h-115v100h340v-100h-115v-600h-31v-39q29 0 46 -15.5t17 -41.5q0 -42 -25.5 -62t-65.5 -20q-36 0 -61 18t-25 51v10z" />
    <glyph glyph-name="uni0163" unicode="&#x163;" horiz-adv-x="356" 
d="M88 -99h64v-10q0 -18 21 -18q26 0 26 26q0 28 -36 28h-11v73h-29v600h-115v100h340v-100h-115v-600h-31v-39q29 0 46 -15.5t17 -41.5q0 -42 -25.5 -62t-65.5 -20q-36 0 -61 18t-25 51v10z" />
    <glyph glyph-name="Tcaron" unicode="&#x164;" horiz-adv-x="356" 
d="M133 848l44 -56l45 56h94l-89 -111h-99l-89 111h94zM8 700h340v-100h-115v-600h-110v600h-115v100z" />
    <glyph glyph-name="tcaron" unicode="&#x165;" horiz-adv-x="356" 
d="M133 848l44 -56l45 56h94l-89 -111h-99l-89 111h94zM8 700h340v-100h-115v-600h-110v600h-115v100z" />
    <glyph glyph-name="Tbar" unicode="&#x166;" horiz-adv-x="356" 
d="M123 487v113h-115v100h340v-100h-115v-113h66v-82h-66v-405h-110v405h-66v82h66z" />
    <glyph glyph-name="tbar" unicode="&#x167;" horiz-adv-x="356" 
d="M123 487v113h-115v100h340v-100h-115v-113h66v-82h-66v-405h-110v405h-66v82h66z" />
    <glyph glyph-name="Utilde" unicode="&#x168;" horiz-adv-x="398" 
d="M240 813q29 0 43 29l53 -37q-25 -68 -85 -68q-23 0 -50 12.5t-40 12.5q-29 0 -43 -29l-53 37q25 68 85 68q22 0 49 -12.5t41 -12.5zM145 700v-540q0 -68 57 -68t57 68v540h104v-533q0 -85 -42 -130.5t-122 -45.5t-122 45.5t-42 130.5v533h110z" />
    <glyph glyph-name="utilde" unicode="&#x169;" horiz-adv-x="398" 
d="M240 813q29 0 43 29l53 -37q-25 -68 -85 -68q-23 0 -50 12.5t-40 12.5q-29 0 -43 -29l-53 37q25 68 85 68q22 0 49 -12.5t41 -12.5zM145 700v-540q0 -68 57 -68t57 68v540h104v-533q0 -85 -42 -130.5t-122 -45.5t-122 45.5t-42 130.5v533h110z" />
    <glyph glyph-name="Umacron" unicode="&#x16a;" horiz-adv-x="398" 
d="M315 819v-78h-230v78h230zM145 700v-540q0 -68 57 -68t57 68v540h104v-533q0 -85 -42 -130.5t-122 -45.5t-122 45.5t-42 130.5v533h110z" />
    <glyph glyph-name="umacron" unicode="&#x16b;" horiz-adv-x="398" 
d="M315 819v-78h-230v78h230zM145 700v-540q0 -68 57 -68t57 68v540h104v-533q0 -85 -42 -130.5t-122 -45.5t-122 45.5t-42 130.5v533h110z" />
    <glyph glyph-name="Ubreve" unicode="&#x16c;" horiz-adv-x="398" 
d="M247 848h65q0 -54 -29 -84.5t-84 -30.5t-82.5 30.5t-28.5 84.5h65q2 -27 13 -37t33 -10q23 0 34.5 10t13.5 37zM145 700v-540q0 -68 57 -68t57 68v540h104v-533q0 -85 -42 -130.5t-122 -45.5t-122 45.5t-42 130.5v533h110z" />
    <glyph glyph-name="ubreve" unicode="&#x16d;" horiz-adv-x="398" 
d="M247 848h65q0 -54 -29 -84.5t-84 -30.5t-82.5 30.5t-28.5 84.5h65q2 -27 13 -37t33 -10q23 0 34.5 10t13.5 37zM145 700v-540q0 -68 57 -68t57 68v540h104v-533q0 -85 -42 -130.5t-122 -45.5t-122 45.5t-42 130.5v533h110z" />
    <glyph glyph-name="Uring" unicode="&#x16e;" horiz-adv-x="398" 
d="M120 814q0 34 23 57t57 23t57 -23t23 -57t-23 -57t-57 -23t-57 23t-23 57zM170 814q0 -13 8.5 -21.5t21.5 -8.5t21.5 8.5t8.5 21.5t-8.5 21.5t-21.5 8.5t-21.5 -8.5t-8.5 -21.5zM145 700v-540q0 -68 57 -68t57 68v540h104v-533q0 -85 -42 -130.5t-122 -45.5t-122 45.5
t-42 130.5v533h110z" />
    <glyph glyph-name="uring" unicode="&#x16f;" horiz-adv-x="398" 
d="M120 814q0 34 23 57t57 23t57 -23t23 -57t-23 -57t-57 -23t-57 23t-23 57zM170 814q0 -13 8.5 -21.5t21.5 -8.5t21.5 8.5t8.5 21.5t-8.5 21.5t-21.5 8.5t-21.5 -8.5t-8.5 -21.5zM145 700v-540q0 -68 57 -68t57 68v540h104v-533q0 -85 -42 -130.5t-122 -45.5t-122 45.5
t-42 130.5v533h110z" />
    <glyph glyph-name="Uhungarumlaut" unicode="&#x170;" horiz-adv-x="398" 
d="M234 848l-83 -111h-67l50 111h100zM365 848l-84 -111h-66l49 111h101zM145 700v-540q0 -68 57 -68t57 68v540h104v-533q0 -85 -42 -130.5t-122 -45.5t-122 45.5t-42 130.5v533h110z" />
    <glyph glyph-name="uhungarumlaut" unicode="&#x171;" horiz-adv-x="398" 
d="M234 848l-83 -111h-67l50 111h100zM365 848l-84 -111h-66l49 111h101zM145 700v-540q0 -68 57 -68t57 68v540h104v-533q0 -85 -42 -130.5t-122 -45.5t-122 45.5t-42 130.5v533h110z" />
    <glyph glyph-name="Uogonek" unicode="&#x172;" horiz-adv-x="398" 
d="M145 700v-540q0 -68 57 -68t57 68v540h104v-533q0 -110 -63 -159q-34 -27 -34 -66q0 -13 10 -20.5t25 -7.5q14 0 36 6v-56q-28 -11 -68 -11q-41 0 -64 16t-23 46q0 46 58 80q-17 -4 -41 -4q-80 0 -122 45.5t-42 130.5v533h110z" />
    <glyph glyph-name="uogonek" unicode="&#x173;" horiz-adv-x="398" 
d="M145 700v-540q0 -68 57 -68t57 68v540h104v-533q0 -110 -63 -159q-34 -27 -34 -66q0 -13 10 -20.5t25 -7.5q14 0 36 6v-56q-28 -11 -68 -11q-41 0 -64 16t-23 46q0 46 58 80q-17 -4 -41 -4q-80 0 -122 45.5t-42 130.5v533h110z" />
    <glyph glyph-name="Wcircumflex" unicode="&#x174;" horiz-adv-x="563" 
d="M143 737l89 111h99l89 -111h-94l-45 55l-44 -55h-94zM284 373l-40 -373h-151l-78 700h107l59 -552l53 552h106l55 -556l57 556h96l-78 -700h-146z" />
    <glyph glyph-name="wcircumflex" unicode="&#x175;" horiz-adv-x="563" 
d="M143 737l89 111h99l89 -111h-94l-45 55l-44 -55h-94zM284 373l-40 -373h-151l-78 700h107l59 -552l53 552h106l55 -556l57 556h96l-78 -700h-146z" />
    <glyph glyph-name="Ycircumflex" unicode="&#x176;" 
d="M64 737l89 111h99l89 -111h-94l-45 55l-44 -55h-94zM143 232l-139 468h115l84 -319l84 319h105l-139 -468v-232h-110v232z" />
    <glyph glyph-name="ycircumflex" unicode="&#x177;" 
d="M64 737l89 111h99l89 -111h-94l-45 55l-44 -55h-94zM143 232l-139 468h115l84 -319l84 319h105l-139 -468v-232h-110v232z" />
    <glyph glyph-name="Ydieresis" unicode="&#x178;" 
d="M174 833v-96h-96v96h96zM326 833v-96h-96v96h96zM143 232l-139 468h115l84 -319l84 319h105l-139 -468v-232h-110v232z" />
    <glyph glyph-name="Zacute" unicode="&#x179;" horiz-adv-x="370" 
d="M304 848l-102 -111h-74l68 111h108zM345 700v-98l-209 -502h209v-100h-322v98l209 502h-199v100h312z" />
    <glyph glyph-name="zacute" unicode="&#x17a;" horiz-adv-x="370" 
d="M304 848l-102 -111h-74l68 111h108zM345 700v-98l-209 -502h209v-100h-322v98l209 502h-199v100h312z" />
    <glyph glyph-name="Zdotaccent" unicode="&#x17b;" horiz-adv-x="370" 
d="M234 833v-96h-96v96h96zM345 700v-98l-209 -502h209v-100h-322v98l209 502h-199v100h312z" />
    <glyph glyph-name="zdotaccent" unicode="&#x17c;" horiz-adv-x="370" 
d="M234 833v-96h-96v96h96zM345 700v-98l-209 -502h209v-100h-322v98l209 502h-199v100h312z" />
    <glyph glyph-name="Zcaron" unicode="&#x17d;" horiz-adv-x="370" 
d="M142 848l44 -56l45 56h94l-89 -111h-99l-89 111h94zM345 700v-98l-209 -502h209v-100h-322v98l209 502h-199v100h312z" />
    <glyph glyph-name="zcaron" unicode="&#x17e;" horiz-adv-x="370" 
d="M142 848l44 -56l45 56h94l-89 -111h-99l-89 111h94zM345 700v-98l-209 -502h209v-100h-322v98l209 502h-199v100h312z" />
    <glyph glyph-name="AEacute" unicode="&#x1fc;" horiz-adv-x="580" 
d="M408 848l-102 -111h-74l68 111h108zM252 127h-111l-32 -127h-105l187 700h361v-100h-190v-195h151v-100h-151v-205h190v-100h-300v127zM252 222v337l-86 -337h86z" />
    <glyph glyph-name="aeacute" unicode="&#x1fd;" horiz-adv-x="580" 
d="M408 848l-102 -111h-74l68 111h108zM252 127h-111l-32 -127h-105l187 700h361v-100h-190v-195h151v-100h-151v-205h190v-100h-300v127zM252 222v337l-86 -337h86z" />
    <glyph glyph-name="Oslashacute" unicode="&#x1fe;" 
d="M316 848l-102 -111h-74l68 111h108zM31 532q0 84 43 130t124 46q60 0 100 -26l20 55l37 -13l-26 -71q36 -43 36 -121v-364q0 -84 -43 -130t-124 -46q-62 0 -100 25l-20 -54l-37 13l25 70q-35 46 -35 122v364zM141 251l112 309q-7 48 -55 48q-57 0 -57 -69v-288zM198 92
q57 0 57 69v288l-113 -309q8 -48 56 -48z" />
    <glyph glyph-name="oslashacute" unicode="&#x1ff;" 
d="M316 848l-102 -111h-74l68 111h108zM31 532q0 84 43 130t124 46q60 0 100 -26l20 55l37 -13l-26 -71q36 -43 36 -121v-364q0 -84 -43 -130t-124 -46q-62 0 -100 25l-20 -54l-37 13l25 70q-35 46 -35 122v364zM141 251l112 309q-7 48 -55 48q-57 0 -57 -69v-288zM198 92
q57 0 57 69v288l-113 -309q8 -48 56 -48z" />
    <glyph glyph-name="uni0218" unicode="&#x218;" horiz-adv-x="374" 
d="M26 532q0 85 41 130.5t121 45.5t121 -45.5t41 -130.5v-22h-104v29q0 69 -55 69t-55 -69q0 -29 12 -55t31 -47t42 -41.5t45.5 -43t41.5 -48t31 -60.5t12 -76q0 -85 -42 -130.5t-122 -45.5t-122 45.5t-42 130.5v43h104v-50q0 -68 57 -68t57 68q0 39 -22 73.5t-53.5 62.5
t-63.5 58.5t-54 76t-22 100.5zM138 -125v92h92v-82l-43 -64h-39l26 54h-36z" />
    <glyph glyph-name="uni0219" unicode="&#x219;" horiz-adv-x="374" 
d="M26 532q0 85 41 130.5t121 45.5t121 -45.5t41 -130.5v-22h-104v29q0 69 -55 69t-55 -69q0 -29 12 -55t31 -47t42 -41.5t45.5 -43t41.5 -48t31 -60.5t12 -76q0 -85 -42 -130.5t-122 -45.5t-122 45.5t-42 130.5v43h104v-50q0 -68 57 -68t57 68q0 39 -22 73.5t-53.5 62.5
t-63.5 58.5t-54 76t-22 100.5zM138 -125v92h92v-82l-43 -64h-39l26 54h-36z" />
    <glyph glyph-name="uni021A" unicode="&#x21a;" horiz-adv-x="356" 
d="M8 700h340v-100h-115v-600h-110v600h-115v100zM132 -125v92h92v-82l-43 -64h-39l26 54h-36z" />
    <glyph glyph-name="uni021B" unicode="&#x21b;" horiz-adv-x="356" 
d="M8 700h340v-100h-115v-600h-110v600h-115v100zM132 -125v92h92v-82l-43 -64h-39l26 54h-36z" />
    <glyph glyph-name="uni0237" unicode="&#x237;" horiz-adv-x="256" 
d="M10 100q12 -1 38 -1q63 0 63 67v534h110v-526q0 -176 -158 -176q-35 0 -53 2v100z" />
    <glyph glyph-name="uni02BC" unicode="&#x2bc;" horiz-adv-x="186" 
d="M40 594v106h106v-95l-48 -111h-45l29 100h-42z" />
    <glyph glyph-name="circumflex" unicode="&#x2c6;" horiz-adv-x="250" 
d="M-13 737l89 111h99l89 -111h-94l-45 55l-44 -55h-94z" />
    <glyph glyph-name="caron" unicode="&#x2c7;" horiz-adv-x="250" 
d="M81 848l44 -56l45 56h94l-89 -111h-99l-89 111h94z" />
    <glyph glyph-name="breve" unicode="&#x2d8;" horiz-adv-x="250" 
d="M172 848h65q0 -54 -29 -84.5t-84 -30.5t-82.5 30.5t-28.5 84.5h65q2 -27 13 -37t33 -10q23 0 34.5 10t13.5 37z" />
    <glyph glyph-name="dotaccent" unicode="&#x2d9;" horiz-adv-x="250" 
d="M173 833v-96h-96v96h96z" />
    <glyph glyph-name="ring" unicode="&#x2da;" horiz-adv-x="250" 
d="M45 814q0 34 23 57t57 23t57 -23t23 -57t-23 -57t-57 -23t-57 23t-23 57zM95 814q0 -13 8.5 -21.5t21.5 -8.5t21.5 8.5t8.5 21.5t-8.5 21.5t-21.5 8.5t-21.5 -8.5t-8.5 -21.5z" />
    <glyph glyph-name="ogonek" unicode="&#x2db;" horiz-adv-x="250" 
d="M123 4h43q-35 -27 -35 -62q0 -13 10 -20.5t25 -7.5q14 0 36 6v-56q-28 -11 -68 -11q-41 0 -64 16t-23 46q0 53 76 89z" />
    <glyph glyph-name="tilde" unicode="&#x2dc;" horiz-adv-x="250" 
d="M165 813q29 0 43 29l53 -37q-25 -68 -85 -68q-22 0 -49 12.5t-41 12.5q-29 0 -43 -29l-53 37q25 68 85 68q22 0 49.5 -12.5t40.5 -12.5z" />
    <glyph glyph-name="hungarumlaut" unicode="&#x2dd;" horiz-adv-x="250" 
d="M125 848l-83 -111h-67l50 111h100zM256 848l-84 -111h-66l49 111h101z" />
    <glyph glyph-name="uni0401" unicode="&#x401;" horiz-adv-x="368" 
d="M161 833v-96h-96v96h96zM313 833v-96h-96v96h96zM150 405h151v-100h-151v-205h190v-100h-300v700h300v-100h-190v-195z" />
    <glyph glyph-name="uni0410" unicode="&#x410;" horiz-adv-x="407" 
d="M396 0h-111l-19 127h-135l-19 -127h-101l112 700h161zM145 222h106l-53 354z" />
    <glyph glyph-name="uni0411" unicode="&#x411;" horiz-adv-x="415" 
d="M41 0v700h308v-100h-198v-179h64q82 0 124 -44.5t42 -128.5v-75q0 -84 -42 -128.5t-124 -44.5h-174zM215 100q56 0 56 66v89q0 66 -56 66h-64v-221h64z" />
    <glyph glyph-name="uni0412" unicode="&#x412;" horiz-adv-x="406" 
d="M206 700q85 0 124 -39.5t39 -121.5v-25q0 -108 -71 -141q82 -32 82 -150v-57q0 -81 -42.5 -123.5t-124.5 -42.5h-173v700h166zM150 600v-185h43q33 0 49.5 17t16.5 57v39q0 72 -56 72h-53zM150 315v-215h63q29 0 43 15.5t14 53.5v61q0 48 -16.5 66.5t-54.5 18.5h-49z" />
    <glyph glyph-name="uni0413" unicode="&#x413;" horiz-adv-x="365" 
d="M41 0v700h290v-100h-180v-600h-110z" />
    <glyph glyph-name="uni0414" unicode="&#x414;" horiz-adv-x="488" 
d="M358 -94v94h-235v-94h-107v192h43q24 30 27 91l25 511h308v-602h48v-192h-109zM194 191q-4 -67 -31 -93h144v502h-93z" />
    <glyph glyph-name="uni0415" unicode="&#x415;" horiz-adv-x="368" 
d="M150 405h151v-100h-151v-205h190v-100h-300v700h300v-100h-190v-195z" />
    <glyph glyph-name="uni0416" unicode="&#x416;" horiz-adv-x="604" 
d="M357 417l130 283h110l-135 -284l135 -416h-113l-100 310l-27 -53v-257h-109v257l-27 54l-100 -311h-113l136 413l-136 287h110l130 -283v283h109v-283z" />
    <glyph glyph-name="uni0417" unicode="&#x417;" 
d="M252 528q0 45 -14.5 62.5t-42.5 17.5q-58 0 -58 -69v-57h-101v52q0 85 41 129.5t121 44.5t122 -45.5t42 -130.5v-18q0 -112 -77 -144q77 -34 77 -147v-55q0 -85 -42 -130.5t-122 -45.5t-122 45.5t-42 130.5v77h104v-84q0 -69 57 -69q28 0 42.5 17.5t14.5 61.5v55
q0 48 -17 68.5t-55 20.5h-27v100h33q33 0 49.5 17t16.5 57v39z" />
    <glyph glyph-name="uni0418" unicode="&#x418;" horiz-adv-x="427" 
d="M153 0h-113v700h98v-443l40 154l90 289h121v-700h-99v493l-45 -172z" />
    <glyph glyph-name="uni0419" unicode="&#x419;" horiz-adv-x="429" 
d="M266 856h67q0 -52 -30 -81.5t-87 -29.5q-56 0 -84.5 29t-30.5 82h68q2 -27 13 -36.5t34 -9.5q24 0 36 10t14 36zM245 321l45 172v-493h99v700h-121l-90 -289l-40 -154v443h-98v-700h113z" />
    <glyph glyph-name="uni041A" unicode="&#x41a;" horiz-adv-x="414" 
d="M184 279l-34 -64v-215h-110v700h110v-305l144 305h110l-153 -312l153 -388h-113z" />
    <glyph glyph-name="uni041B" unicode="&#x41b;" horiz-adv-x="450" 
d="M9 99q40 0 53.5 12.5t14.5 59.5l18 529h311v-700h-112v600h-96l-12 -423q-3 -96 -40 -137t-120 -41h-17v100z" />
    <glyph glyph-name="uni041C" unicode="&#x41c;" horiz-adv-x="541" 
d="M273 203l75 497h153v-700h-104v502l-76 -502h-104l-82 495v-495h-96v700h153z" />
    <glyph glyph-name="uni041D" unicode="&#x41d;" horiz-adv-x="427" 
d="M150 0h-110v700h110v-300h125v300h112v-700h-112v300h-125v-300z" />
    <glyph glyph-name="uni041E" unicode="&#x41e;" 
d="M31 532q0 84 43 130t124 46t124 -46t43 -130v-364q0 -84 -43 -130t-124 -46t-124 46t-43 130v364zM141 161q0 -69 57 -69t57 69v378q0 69 -57 69t-57 -69v-378z" />
    <glyph glyph-name="uni041F" unicode="&#x41f;" horiz-adv-x="427" 
d="M150 0h-110v700h347v-700h-112v600h-125v-600z" />
    <glyph glyph-name="uni0420" unicode="&#x420;" horiz-adv-x="377" 
d="M202 700q164 0 164 -173v-91q0 -173 -164 -173h-52v-263h-110v700h162zM150 600v-237h52q27 0 40.5 15t13.5 51v105q0 36 -13.5 51t-40.5 15h-52z" />
    <glyph glyph-name="uni0421" unicode="&#x421;" horiz-adv-x="386" 
d="M359 261v-93q0 -85 -42 -130.5t-122 -45.5t-122 45.5t-42 130.5v364q0 85 42 130.5t122 45.5t122 -45.5t42 -130.5v-68h-104v75q0 69 -57 69t-57 -69v-378q0 -68 57 -68t57 68v100h104z" />
    <glyph glyph-name="uni0422" unicode="&#x422;" horiz-adv-x="356" 
d="M8 700h340v-100h-115v-600h-110v600h-115v100z" />
    <glyph glyph-name="uni0423" unicode="&#x423;" horiz-adv-x="408" 
d="M284 178q-21 -102 -67 -144t-155 -35v98q45 -3 68 9t29 48l1 6l-152 540h109l60 -239l34 -164l26 163l50 240h115z" />
    <glyph glyph-name="uni0424" unicode="&#x424;" horiz-adv-x="583" 
d="M236 79h-41q-164 0 -164 173v191q0 173 164 173h41v84h108v-84h41q164 0 164 -173v-191q0 -173 -164 -173h-41v-79h-108v79zM236 519h-41q-55 0 -55 -69v-205q0 -70 55 -70h41v344zM344 519v-344h41q55 0 55 70v205q0 69 -55 69h-41z" />
    <glyph glyph-name="uni0425" unicode="&#x425;" horiz-adv-x="430" 
d="M407 700l-115 -340l123 -360h-116l-90 277l-91 -277h-103l123 360l-115 340h114l83 -258l85 258h102z" />
    <glyph glyph-name="uni0426" unicode="&#x426;" horiz-adv-x="455" 
d="M40 700h110v-600h125v600h112v-602h48v-192h-107v94h-288v700z" />
    <glyph glyph-name="uni0427" unicode="&#x427;" horiz-adv-x="415" 
d="M374 700v-700h-110v282q-36 -39 -94 -39q-66 0 -101.5 43.5t-35.5 117.5v296h110v-287q0 -34 18 -51.5t46 -17.5q27 0 42 18.5t15 53.5v284h110z" />
    <glyph glyph-name="uni0428" unicode="&#x428;" horiz-adv-x="600" 
d="M40 0v700h110v-600h95v600h110v-600h95v600h110v-700h-520z" />
    <glyph glyph-name="uni0429" unicode="&#x429;" horiz-adv-x="629" 
d="M560 98h49v-192h-107v94h-462v700h110v-600h95v600h110v-600h95v600h110v-602z" />
    <glyph glyph-name="uni042A" unicode="&#x42a;" horiz-adv-x="439" 
d="M8 700h189v-263h52q164 0 164 -173v-91q0 -173 -164 -173h-162v600h-79v100zM249 100q27 0 40.5 15t13.5 51v105q0 36 -13.5 51t-40.5 15h-52v-237h52z" />
    <glyph glyph-name="uni042B" unicode="&#x42b;" horiz-adv-x="579" 
d="M40 0v700h110v-263h52q164 0 164 -173v-91q0 -173 -164 -173h-162zM429 0v700h110v-700h-110zM202 100q27 0 40.5 15t13.5 51v105q0 36 -13.5 51t-40.5 15h-52v-237h52z" />
    <glyph glyph-name="uni042C" unicode="&#x42c;" horiz-adv-x="392" 
d="M40 0v700h110v-263h52q164 0 164 -173v-91q0 -173 -164 -173h-162zM202 100q27 0 40.5 15t13.5 51v105q0 36 -13.5 51t-40.5 15h-52v-237h52z" />
    <glyph glyph-name="uni042D" unicode="&#x42d;" horiz-adv-x="386" 
d="M130 251v-90q0 -68 57 -68t57 68v151h-101v100h101v127q0 69 -57 69t-57 -69v-66h-102v59q0 85 41 130.5t121 45.5t122 -45.5t42 -130.5v-364q0 -85 -42 -130.5t-122 -45.5t-122 45.5t-42 130.5v83h104z" />
    <glyph glyph-name="uni042E" unicode="&#x42e;" horiz-adv-x="599" 
d="M232 300h-82v-300h-110v700h110v-300h82v132q0 84 43 130t124 46t124 -46t43 -130v-364q0 -84 -43 -130t-124 -46t-124 46t-43 130v132zM342 161q0 -69 57 -69t57 69v378q0 69 -57 69t-57 -69v-378z" />
    <glyph glyph-name="uni042F" unicode="&#x42f;" horiz-adv-x="402" 
d="M20 0q12 28 12 85v108q0 118 73 149q-72 34 -72 142v55q0 82 39 121.5t124 39.5h166v-700h-110v285h-38q-38 0 -55 -20.5t-17 -68.5v-110q0 -56 -10 -86h-112zM199 600q-56 0 -56 -72v-69q0 -40 16.5 -57t49.5 -17h43v215h-53z" />
    <glyph glyph-name="uni0430" unicode="&#x430;" horiz-adv-x="407" 
d="M396 0h-111l-19 127h-135l-19 -127h-101l112 700h161zM145 222h106l-53 354z" />
    <glyph glyph-name="uni0431" unicode="&#x431;" horiz-adv-x="415" 
d="M41 0v700h308v-100h-198v-179h64q82 0 124 -44.5t42 -128.5v-75q0 -84 -42 -128.5t-124 -44.5h-174zM215 100q56 0 56 66v89q0 66 -56 66h-64v-221h64z" />
    <glyph glyph-name="uni0432" unicode="&#x432;" horiz-adv-x="406" 
d="M206 700q85 0 124 -39.5t39 -121.5v-25q0 -108 -71 -141q82 -32 82 -150v-57q0 -81 -42.5 -123.5t-124.5 -42.5h-173v700h166zM150 600v-185h43q33 0 49.5 17t16.5 57v39q0 72 -56 72h-53zM150 315v-215h63q29 0 43 15.5t14 53.5v61q0 48 -16.5 66.5t-54.5 18.5h-49z" />
    <glyph glyph-name="uni0433" unicode="&#x433;" horiz-adv-x="365" 
d="M41 0v700h290v-100h-180v-600h-110z" />
    <glyph glyph-name="uni0434" unicode="&#x434;" horiz-adv-x="488" 
d="M358 -94v94h-235v-94h-107v192h43q24 30 27 91l25 511h308v-602h48v-192h-109zM194 191q-4 -67 -31 -93h144v502h-93z" />
    <glyph glyph-name="uni0435" unicode="&#x435;" horiz-adv-x="368" 
d="M150 405h151v-100h-151v-205h190v-100h-300v700h300v-100h-190v-195z" />
    <glyph glyph-name="uni0436" unicode="&#x436;" horiz-adv-x="604" 
d="M357 417l130 283h110l-135 -284l135 -416h-113l-100 310l-27 -53v-257h-109v257l-27 54l-100 -311h-113l136 413l-136 287h110l130 -283v283h109v-283z" />
    <glyph glyph-name="uni0437" unicode="&#x437;" 
d="M252 528q0 45 -14.5 62.5t-42.5 17.5q-58 0 -58 -69v-57h-101v52q0 85 41 129.5t121 44.5t122 -45.5t42 -130.5v-18q0 -112 -77 -144q77 -34 77 -147v-55q0 -85 -42 -130.5t-122 -45.5t-122 45.5t-42 130.5v77h104v-84q0 -69 57 -69q28 0 42.5 17.5t14.5 61.5v55
q0 48 -17 68.5t-55 20.5h-27v100h33q33 0 49.5 17t16.5 57v39z" />
    <glyph glyph-name="uni0438" unicode="&#x438;" horiz-adv-x="427" 
d="M153 0h-113v700h98v-443l40 154l90 289h121v-700h-99v493l-45 -172z" />
    <glyph glyph-name="uni0439" unicode="&#x439;" horiz-adv-x="429" 
d="M266 856h67q0 -52 -30 -81.5t-87 -29.5q-56 0 -84.5 29t-30.5 82h68q2 -27 13 -36.5t34 -9.5q24 0 36 10t14 36zM245 321l45 172v-493h99v700h-121l-90 -289l-40 -154v443h-98v-700h113z" />
    <glyph glyph-name="uni043A" unicode="&#x43a;" horiz-adv-x="414" 
d="M184 279l-34 -64v-215h-110v700h110v-305l144 305h110l-153 -312l153 -388h-113z" />
    <glyph glyph-name="uni043B" unicode="&#x43b;" horiz-adv-x="450" 
d="M9 99q40 0 53.5 12.5t14.5 59.5l18 529h311v-700h-112v600h-96l-12 -423q-3 -96 -40 -137t-120 -41h-17v100z" />
    <glyph glyph-name="uni043C" unicode="&#x43c;" horiz-adv-x="541" 
d="M273 203l75 497h153v-700h-104v502l-76 -502h-104l-82 495v-495h-96v700h153z" />
    <glyph glyph-name="uni043D" unicode="&#x43d;" horiz-adv-x="427" 
d="M150 0h-110v700h110v-300h125v300h112v-700h-112v300h-125v-300z" />
    <glyph glyph-name="uni043E" unicode="&#x43e;" 
d="M31 532q0 84 43 130t124 46t124 -46t43 -130v-364q0 -84 -43 -130t-124 -46t-124 46t-43 130v364zM141 161q0 -69 57 -69t57 69v378q0 69 -57 69t-57 -69v-378z" />
    <glyph glyph-name="uni043F" unicode="&#x43f;" horiz-adv-x="427" 
d="M150 0h-110v700h347v-700h-112v600h-125v-600z" />
    <glyph glyph-name="uni0440" unicode="&#x440;" horiz-adv-x="377" 
d="M202 700q164 0 164 -173v-91q0 -173 -164 -173h-52v-263h-110v700h162zM150 600v-237h52q27 0 40.5 15t13.5 51v105q0 36 -13.5 51t-40.5 15h-52z" />
    <glyph glyph-name="uni0441" unicode="&#x441;" horiz-adv-x="386" 
d="M359 261v-93q0 -85 -42 -130.5t-122 -45.5t-122 45.5t-42 130.5v364q0 85 42 130.5t122 45.5t122 -45.5t42 -130.5v-68h-104v75q0 69 -57 69t-57 -69v-378q0 -68 57 -68t57 68v100h104z" />
    <glyph glyph-name="uni0442" unicode="&#x442;" horiz-adv-x="356" 
d="M8 700h340v-100h-115v-600h-110v600h-115v100z" />
    <glyph glyph-name="uni0443" unicode="&#x443;" horiz-adv-x="408" 
d="M284 178q-21 -102 -67 -144t-155 -35v98q45 -3 68 9t29 48l1 6l-152 540h109l60 -239l34 -164l26 163l50 240h115z" />
    <glyph glyph-name="uni0444" unicode="&#x444;" horiz-adv-x="583" 
d="M236 79h-41q-164 0 -164 173v191q0 173 164 173h41v84h108v-84h41q164 0 164 -173v-191q0 -173 -164 -173h-41v-79h-108v79zM236 519h-41q-55 0 -55 -69v-205q0 -70 55 -70h41v344zM344 519v-344h41q55 0 55 70v205q0 69 -55 69h-41z" />
    <glyph glyph-name="uni0445" unicode="&#x445;" horiz-adv-x="430" 
d="M407 700l-115 -340l123 -360h-116l-90 277l-91 -277h-103l123 360l-115 340h114l83 -258l85 258h102z" />
    <glyph glyph-name="uni0446" unicode="&#x446;" horiz-adv-x="455" 
d="M40 700h110v-600h125v600h112v-602h48v-192h-107v94h-288v700z" />
    <glyph glyph-name="uni0447" unicode="&#x447;" horiz-adv-x="415" 
d="M374 700v-700h-110v282q-36 -39 -94 -39q-66 0 -101.5 43.5t-35.5 117.5v296h110v-287q0 -34 18 -51.5t46 -17.5q27 0 42 18.5t15 53.5v284h110z" />
    <glyph glyph-name="uni0448" unicode="&#x448;" horiz-adv-x="600" 
d="M40 0v700h110v-600h95v600h110v-600h95v600h110v-700h-520z" />
    <glyph glyph-name="uni0449" unicode="&#x449;" horiz-adv-x="629" 
d="M560 98h49v-192h-107v94h-462v700h110v-600h95v600h110v-600h95v600h110v-602z" />
    <glyph glyph-name="uni044A" unicode="&#x44a;" horiz-adv-x="439" 
d="M8 700h189v-263h52q164 0 164 -173v-91q0 -173 -164 -173h-162v600h-79v100zM249 100q27 0 40.5 15t13.5 51v105q0 36 -13.5 51t-40.5 15h-52v-237h52z" />
    <glyph glyph-name="uni044B" unicode="&#x44b;" horiz-adv-x="579" 
d="M40 0v700h110v-263h52q164 0 164 -173v-91q0 -173 -164 -173h-162zM429 0v700h110v-700h-110zM202 100q27 0 40.5 15t13.5 51v105q0 36 -13.5 51t-40.5 15h-52v-237h52z" />
    <glyph glyph-name="uni044C" unicode="&#x44c;" horiz-adv-x="392" 
d="M40 0v700h110v-263h52q164 0 164 -173v-91q0 -173 -164 -173h-162zM202 100q27 0 40.5 15t13.5 51v105q0 36 -13.5 51t-40.5 15h-52v-237h52z" />
    <glyph glyph-name="uni044D" unicode="&#x44d;" horiz-adv-x="386" 
d="M130 251v-90q0 -68 57 -68t57 68v151h-101v100h101v127q0 69 -57 69t-57 -69v-66h-102v59q0 85 41 130.5t121 45.5t122 -45.5t42 -130.5v-364q0 -85 -42 -130.5t-122 -45.5t-122 45.5t-42 130.5v83h104z" />
    <glyph glyph-name="uni044E" unicode="&#x44e;" horiz-adv-x="599" 
d="M232 300h-82v-300h-110v700h110v-300h82v132q0 84 43 130t124 46t124 -46t43 -130v-364q0 -84 -43 -130t-124 -46t-124 46t-43 130v132zM342 161q0 -69 57 -69t57 69v378q0 69 -57 69t-57 -69v-378z" />
    <glyph glyph-name="uni044F" unicode="&#x44f;" horiz-adv-x="402" 
d="M20 0q12 28 12 85v108q0 118 73 149q-72 34 -72 142v55q0 82 39 121.5t124 39.5h166v-700h-110v285h-38q-38 0 -55 -20.5t-17 -68.5v-110q0 -56 -10 -86h-112zM199 600q-56 0 -56 -72v-69q0 -40 16.5 -57t49.5 -17h43v215h-53z" />
    <glyph glyph-name="uni0451" unicode="&#x451;" horiz-adv-x="368" 
d="M161 833v-96h-96v96h96zM313 833v-96h-96v96h96zM150 405h151v-100h-151v-205h190v-100h-300v700h300v-100h-190v-195z" />
    <glyph glyph-name="uni1E02" unicode="&#x1e02;" horiz-adv-x="406" 
d="M234 833v-96h-96v96h96zM206 700q85 0 124 -39.5t39 -121.5v-25q0 -108 -71 -141q82 -32 82 -150v-57q0 -81 -42.5 -123.5t-124.5 -42.5h-173v700h166zM150 600v-185h43q33 0 49.5 17t16.5 57v39q0 72 -56 72h-53zM150 315v-215h63q29 0 43 15.5t14 53.5v61
q0 48 -16.5 66.5t-54.5 18.5h-49z" />
    <glyph glyph-name="uni1E03" unicode="&#x1e03;" horiz-adv-x="406" 
d="M234 833v-96h-96v96h96zM206 700q85 0 124 -39.5t39 -121.5v-25q0 -108 -71 -141q82 -32 82 -150v-57q0 -81 -42.5 -123.5t-124.5 -42.5h-173v700h166zM150 600v-185h43q33 0 49.5 17t16.5 57v39q0 72 -56 72h-53zM150 315v-215h63q29 0 43 15.5t14 53.5v61
q0 48 -16.5 66.5t-54.5 18.5h-49z" />
    <glyph glyph-name="uni1E0A" unicode="&#x1e0a;" horiz-adv-x="408" 
d="M242 833v-96h-96v96h96zM40 700h174q164 0 164 -173v-354q0 -173 -164 -173h-174v700zM150 600v-500h62q56 0 56 68v364q0 68 -56 68h-62z" />
    <glyph glyph-name="uni1E0B" unicode="&#x1e0b;" horiz-adv-x="408" 
d="M242 833v-96h-96v96h96zM40 700h174q164 0 164 -173v-354q0 -173 -164 -173h-174v700zM150 600v-500h62q56 0 56 68v364q0 68 -56 68h-62z" />
    <glyph glyph-name="uni1E1E" unicode="&#x1e1e;" horiz-adv-x="344" 
d="M230 833v-96h-96v96h96zM150 389h142v-100h-142v-289h-110v700h291v-100h-181v-211z" />
    <glyph glyph-name="uni1E1F" unicode="&#x1e1f;" horiz-adv-x="344" 
d="M230 833v-96h-96v96h96zM150 389h142v-100h-142v-289h-110v700h291v-100h-181v-211z" />
    <glyph glyph-name="uni1E40" unicode="&#x1e40;" horiz-adv-x="541" 
d="M318 833v-96h-96v96h96zM273 203l75 497h153v-700h-104v502l-76 -502h-104l-82 495v-495h-96v700h153z" />
    <glyph glyph-name="uni1E41" unicode="&#x1e41;" horiz-adv-x="541" 
d="M318 833v-96h-96v96h96zM273 203l75 497h153v-700h-104v502l-76 -502h-104l-82 495v-495h-96v700h153z" />
    <glyph glyph-name="uni1E56" unicode="&#x1e56;" horiz-adv-x="377" 
d="M238 833v-96h-96v96h96zM202 700q164 0 164 -173v-91q0 -173 -164 -173h-52v-263h-110v700h162zM150 600v-237h52q27 0 40.5 15t13.5 51v105q0 36 -13.5 51t-40.5 15h-52z" />
    <glyph glyph-name="uni1E57" unicode="&#x1e57;" horiz-adv-x="377" 
d="M238 833v-96h-96v96h96zM202 700q164 0 164 -173v-91q0 -173 -164 -173h-52v-263h-110v700h162zM150 600v-237h52q27 0 40.5 15t13.5 51v105q0 36 -13.5 51t-40.5 15h-52z" />
    <glyph glyph-name="uni1E60" unicode="&#x1e60;" horiz-adv-x="374" 
d="M235 833v-96h-96v96h96zM26 532q0 85 41 130.5t121 45.5t121 -45.5t41 -130.5v-22h-104v29q0 69 -55 69t-55 -69q0 -29 12 -55t31 -47t42 -41.5t45.5 -43t41.5 -48t31 -60.5t12 -76q0 -85 -42 -130.5t-122 -45.5t-122 45.5t-42 130.5v43h104v-50q0 -68 57 -68t57 68
q0 39 -22 73.5t-53.5 62.5t-63.5 58.5t-54 76t-22 100.5z" />
    <glyph glyph-name="uni1E61" unicode="&#x1e61;" horiz-adv-x="374" 
d="M235 833v-96h-96v96h96zM26 532q0 85 41 130.5t121 45.5t121 -45.5t41 -130.5v-22h-104v29q0 69 -55 69t-55 -69q0 -29 12 -55t31 -47t42 -41.5t45.5 -43t41.5 -48t31 -60.5t12 -76q0 -85 -42 -130.5t-122 -45.5t-122 45.5t-42 130.5v43h104v-50q0 -68 57 -68t57 68
q0 39 -22 73.5t-53.5 62.5t-63.5 58.5t-54 76t-22 100.5z" />
    <glyph glyph-name="uni1E6A" unicode="&#x1e6a;" horiz-adv-x="356" 
d="M226 833v-96h-96v96h96zM8 700h340v-100h-115v-600h-110v600h-115v100z" />
    <glyph glyph-name="uni1E6B" unicode="&#x1e6b;" horiz-adv-x="356" 
d="M226 833v-96h-96v96h96zM8 700h340v-100h-115v-600h-110v600h-115v100z" />
    <glyph glyph-name="Wgrave" unicode="&#x1e80;" horiz-adv-x="563" 
d="M274 848l68 -111h-79l-102 111h113zM284 373l-40 -373h-151l-78 700h107l59 -552l53 552h106l55 -556l57 556h96l-78 -700h-146z" />
    <glyph glyph-name="wgrave" unicode="&#x1e81;" horiz-adv-x="563" 
d="M274 848l68 -111h-79l-102 111h113zM284 373l-40 -373h-151l-78 700h107l59 -552l53 552h106l55 -556l57 556h96l-78 -700h-146z" />
    <glyph glyph-name="Wacute" unicode="&#x1e82;" horiz-adv-x="563" 
d="M399 848l-102 -111h-74l68 111h108zM284 373l-40 -373h-151l-78 700h107l59 -552l53 552h106l55 -556l57 556h96l-78 -700h-146z" />
    <glyph glyph-name="wacute" unicode="&#x1e83;" horiz-adv-x="563" 
d="M399 848l-102 -111h-74l68 111h108zM284 373l-40 -373h-151l-78 700h107l59 -552l53 552h106l55 -556l57 556h96l-78 -700h-146z" />
    <glyph glyph-name="Wdieresis" unicode="&#x1e84;" horiz-adv-x="563" 
d="M253 833v-96h-96v96h96zM405 833v-96h-96v96h96zM284 373l-40 -373h-151l-78 700h107l59 -552l53 552h106l55 -556l57 556h96l-78 -700h-146z" />
    <glyph glyph-name="wdieresis" unicode="&#x1e85;" horiz-adv-x="563" 
d="M253 833v-96h-96v96h96zM405 833v-96h-96v96h96zM284 373l-40 -373h-151l-78 700h107l59 -552l53 552h106l55 -556l57 556h96l-78 -700h-146z" />
    <glyph glyph-name="Ygrave" unicode="&#x1ef2;" 
d="M195 848l68 -111h-79l-102 111h113zM143 232l-139 468h115l84 -319l84 319h105l-139 -468v-232h-110v232z" />
    <glyph glyph-name="ygrave" unicode="&#x1ef3;" 
d="M195 848l68 -111h-79l-102 111h113zM143 232l-139 468h115l84 -319l84 319h105l-139 -468v-232h-110v232z" />
    <glyph glyph-name="figuredash" unicode="&#x2012;" 
d="M0 395h396v-90h-396v90z" />
    <glyph glyph-name="endash" unicode="&#x2013;" horiz-adv-x="500" 
d="M0 395h500v-90h-500v90z" />
    <glyph glyph-name="emdash" unicode="&#x2014;" horiz-adv-x="1000" 
d="M0 395h1000v-90h-1000v90z" />
    <glyph glyph-name="quoteleft" unicode="&#x2018;" horiz-adv-x="186" 
d="M146 600v-106h-106v95l48 111h45l-29 -100h42z" />
    <glyph glyph-name="quoteright" unicode="&#x2019;" horiz-adv-x="186" 
d="M40 594v106h106v-95l-48 -111h-45l29 100h-42z" />
    <glyph glyph-name="quotesinglbase" unicode="&#x201a;" horiz-adv-x="186" 
d="M40 0v106h106v-95l-48 -111h-45l29 100h-42z" />
    <glyph glyph-name="quotedblleft" unicode="&#x201c;" horiz-adv-x="332" 
d="M146 600v-106h-106v95l48 111h45l-29 -100h42zM292 600v-106h-106v95l48 111h45l-29 -100h42z" />
    <glyph glyph-name="quotedblright" unicode="&#x201d;" horiz-adv-x="332" 
d="M40 594v106h106v-95l-48 -111h-45l29 100h-42zM186 594v106h106v-95l-48 -111h-45l29 100h-42z" />
    <glyph glyph-name="quotedblbase" unicode="&#x201e;" horiz-adv-x="332" 
d="M40 0v106h106v-95l-48 -111h-45l29 100h-42zM186 0v106h106v-95l-48 -111h-45l29 100h-42z" />
    <glyph glyph-name="dagger" unicode="&#x2020;" 
d="M25 525h128v175h90v-175h128v-85h-128v-505h-90v505h-128v85z" />
    <glyph glyph-name="daggerdbl" unicode="&#x2021;" 
d="M25 525h128v175h90v-175h128v-85h-128v-245h128v-85h-128v-175h-90v175h-128v85h128v245h-128v85z" />
    <glyph glyph-name="bullet" unicode="&#x2022;" 
d="M59 350q0 58 40.5 98.5t98.5 40.5t98.5 -40.5t40.5 -98.5t-40.5 -98.5t-98.5 -40.5t-98.5 40.5t-40.5 98.5z" />
    <glyph glyph-name="ellipsis" unicode="&#x2026;" horiz-adv-x="478" 
d="M146 106v-106h-106v106h106zM292 106v-106h-106v106h106zM438 106v-106h-106v106h106z" />
    <glyph glyph-name="perthousand" unicode="&#x2030;" horiz-adv-x="883" 
d="M34 593q0 54 27 83t79 29t79 -29t27 -83v-230q0 -54 -27 -83t-79 -29t-79 29t-27 83v230zM416 700h65l-276 -700h-65zM104 358q0 -44 36 -44t36 44v240q0 44 -36 44t-36 -44v-240zM381 337q0 54 27 83t79 29t79 -29t27 -83v-230q0 -54 -27 -83t-79 -29t-79 29t-27 83v230
zM637 337q0 54 27 83t79 29t79 -29t27 -83v-230q0 -54 -27 -83t-79 -29t-79 29t-27 83v230zM451 102q0 -44 36 -44t36 44v240q0 44 -36 44t-36 -44v-240zM707 102q0 -44 36 -44t36 44v240q0 44 -36 44t-36 -44v-240z" />
    <glyph glyph-name="guilsinglleft" unicode="&#x2039;" horiz-adv-x="196" 
d="M180 617l-59 -266l59 -282h-104l-60 282l60 266h104z" />
    <glyph glyph-name="guilsinglright" unicode="&#x203a;" horiz-adv-x="196" 
d="M120 617l60 -266l-60 -282h-104l59 282l-59 266h104z" />
    <glyph glyph-name="fraction" unicode="&#x2044;" horiz-adv-x="67" 
d="M139 700h65l-276 -700h-65z" />
    <glyph glyph-name="uni2070" unicode="&#x2070;" horiz-adv-x="280" 
d="M34 688q0 54 27 83t79 29t79 -29t27 -83v-230q0 -54 -27 -83t-79 -29t-79 29t-27 83v230zM104 453q0 -44 36 -44t36 44v240q0 44 -36 44t-36 -44v-240z" />
    <glyph glyph-name="uni2074" unicode="&#x2074;" horiz-adv-x="280" 
d="M24 495l127 300h76v-300h33v-64h-33v-80h-69v80h-134v64zM158 495v164l-71 -164h71z" />
    <glyph glyph-name="uni2075" unicode="&#x2075;" horiz-adv-x="280" 
d="M103 493v-41q0 -43 36 -43t36 43v97q0 44 -36 44t-36 -44v-13h-66l13 258h184v-64h-122l-5 -106q19 33 61 33q77 0 77 -102v-99q0 -54 -26.5 -83t-77.5 -29t-77.5 29t-26.5 83v37h66z" />
    <glyph glyph-name="uni2076" unicode="&#x2076;" horiz-adv-x="280" 
d="M36 685q0 115 107 115q51 0 77.5 -29t26.5 -83v-11h-66v16q0 44 -36 44q-20 0 -29.5 -12t-9.5 -43v-81q19 39 65 39q77 0 77 -101v-81q0 -54 -27.5 -83t-78.5 -29t-78.5 29t-27.5 83v227zM142 577q-36 0 -36 -44v-80q0 -43 36 -43t36 43v80q0 44 -36 44z" />
    <glyph glyph-name="uni2077" unicode="&#x2077;" horiz-adv-x="280" 
d="M245 795v-61l-103 -383h-70l102 381h-139v63h210z" />
    <glyph glyph-name="uni2078" unicode="&#x2078;" horiz-adv-x="280" 
d="M249 458q0 -53 -28.5 -82.5t-80.5 -29.5t-80.5 29.5t-28.5 82.5v34q0 69 43 93q-43 24 -43 89v14q0 53 28.5 82.5t80.5 29.5t80.5 -29.5t28.5 -82.5v-14q0 -65 -43 -89q43 -24 43 -93v-34zM101 661q0 -47 39 -47t39 47v25q0 51 -39 51t-39 -51v-25zM101 459q0 -50 39 -50
t39 50v42q0 50 -39 50t-39 -50v-42z" />
    <glyph glyph-name="uni2079" unicode="&#x2079;" horiz-adv-x="280" 
d="M244 461q0 -115 -107 -115q-51 0 -77.5 29t-26.5 83v11h66v-16q0 -44 36 -44q20 0 29.5 12t9.5 43v81q-19 -39 -65 -39q-77 0 -77 101v81q0 54 27.5 83t78.5 29t78.5 -29t27.5 -83v-227zM138 569q36 0 36 44v80q0 43 -36 43t-36 -43v-80q0 -44 36 -44z" />
    <glyph glyph-name="uni2080" unicode="&#x2080;" horiz-adv-x="280" 
d="M34 272q0 54 27 83t79 29t79 -29t27 -83v-230q0 -54 -27 -83t-79 -29t-79 29t-27 83v230zM104 37q0 -44 36 -44t36 44v240q0 44 -36 44t-36 -44v-240z" />
    <glyph glyph-name="uni2081" unicode="&#x2081;" horiz-adv-x="200" 
d="M25 323q36 0 51.5 14t26.5 42h46v-444h-70v339h-54v49z" />
    <glyph glyph-name="uni2082" unicode="&#x2082;" horiz-adv-x="280" 
d="M180 272q0 50 -36 50t-36 -44v-47h-66v43q0 111 104 111t104 -111q0 -49 -23.5 -93.5t-51 -70.5t-48 -56t-15.5 -56h132v-63h-202v54q0 36 14 66.5t34.5 53l41 45t34.5 53t14 65.5z" />
    <glyph glyph-name="uni2083" unicode="&#x2083;" horiz-adv-x="280" 
d="M174 78q0 31 -10.5 43.5t-34.5 12.5h-24v63h27q42 0 42 48v25q0 51 -36 51t-36 -44v-28h-66v23q0 112 104 112t104 -112v-11q0 -71 -49 -91q49 -21 49 -93v-35q0 -112 -104 -112t-104 112v36h66v-41q0 -44 36 -44t36 51v34z" />
    <glyph glyph-name="uni2084" unicode="&#x2084;" horiz-adv-x="280" 
d="M24 79l127 300h76v-300h33v-64h-33v-80h-69v80h-134v64zM158 79v164l-71 -164h71z" />
    <glyph glyph-name="uni2085" unicode="&#x2085;" horiz-adv-x="280" 
d="M103 77v-41q0 -43 36 -43t36 43v97q0 44 -36 44t-36 -44v-13h-66l13 258h184v-64h-122l-5 -106q19 33 61 33q77 0 77 -102v-99q0 -54 -26.5 -83t-77.5 -29t-77.5 29t-26.5 83v37h66z" />
    <glyph glyph-name="uni2086" unicode="&#x2086;" horiz-adv-x="280" 
d="M36 269q0 115 107 115q51 0 77.5 -29t26.5 -83v-11h-66v16q0 44 -36 44q-20 0 -29.5 -12t-9.5 -43v-81q19 39 65 39q77 0 77 -101v-81q0 -54 -27.5 -83t-78.5 -29t-78.5 29t-27.5 83v227zM142 161q-36 0 -36 -44v-80q0 -43 36 -43t36 43v80q0 44 -36 44z" />
    <glyph glyph-name="uni2087" unicode="&#x2087;" horiz-adv-x="280" 
d="M245 379v-61l-103 -383h-70l102 381h-139v63h210z" />
    <glyph glyph-name="uni2088" unicode="&#x2088;" horiz-adv-x="280" 
d="M249 42q0 -53 -28.5 -82.5t-80.5 -29.5t-80.5 29.5t-28.5 82.5v34q0 69 43 93q-43 24 -43 89v14q0 53 28.5 82.5t80.5 29.5t80.5 -29.5t28.5 -82.5v-14q0 -65 -43 -89q43 -24 43 -93v-34zM101 245q0 -47 39 -47t39 47v25q0 51 -39 51t-39 -51v-25zM101 43q0 -50 39 -50
t39 50v42q0 50 -39 50t-39 -50v-42z" />
    <glyph glyph-name="uni2089" unicode="&#x2089;" horiz-adv-x="280" 
d="M244 45q0 -115 -107 -115q-51 0 -77.5 29t-26.5 83v11h66v-16q0 -44 36 -44q20 0 29.5 12t9.5 43v81q-19 -39 -65 -39q-77 0 -77 101v81q0 54 27.5 83t78.5 29t78.5 -29t27.5 -83v-227zM138 153q36 0 36 44v80q0 43 -36 43t-36 -43v-80q0 -44 36 -44z" />
    <glyph glyph-name="Euro" unicode="&#x20ac;" 
d="M19 435h28v97q0 85 40.5 130.5t120.5 45.5t120.5 -45.5t40.5 -130.5v-51h-104v58q0 69 -54 69t-54 -69v-104h154v-55h-154v-55h154v-55h-154v-109q0 -68 54 -68t54 68v63h104v-56q0 -85 -40.5 -130.5t-120.5 -45.5t-120.5 45.5t-40.5 130.5v102h-28v55h28v55h-28v55z" />
    <glyph glyph-name="uni20B9" unicode="&#x20b9;" 
d="M202 549q0 36 -20.5 51t-63.5 15h-92v85h344v-85h-84q19 -28 25 -66h59v-85h-59q-6 -70 -52 -110.5t-111 -40.5h-5l233 -313h-118l-232 313v85h92q43 0 63.5 15t20.5 51h-176v85h176z" />
    <glyph glyph-name="uni2117" unicode="&#x2117;" horiz-adv-x="736" 
d="M20 350q0 155 99.5 256.5t248.5 101.5t248.5 -101.5t99.5 -256.5t-99.5 -256.5t-248.5 -101.5t-248.5 101.5t-99.5 256.5zM92 350q0 -125 78.5 -206.5t197.5 -81.5t197.5 81.5t78.5 206.5t-78.5 206.5t-197.5 81.5t-197.5 -81.5t-78.5 -206.5zM275 555h116
q113 0 113 -112v-56q0 -112 -113 -112h-40v-148h-76v428zM428 434q0 51 -41 51h-36v-140h36q41 0 41 51v38z" />
    <glyph glyph-name="trademark" unicode="&#x2122;" horiz-adv-x="586" 
d="M10 700h216v-64h-73v-292h-70v292h-73v64zM417 450l47 250h97v-356h-66v253l-47 -253h-66l-53 251v-251h-61v356h97z" />
    <glyph glyph-name="uni2153" unicode="&#x2153;" horiz-adv-x="600" 
 />
    <glyph glyph-name="uni2154" unicode="&#x2154;" horiz-adv-x="600" 
 />
    <glyph glyph-name="oneeighth" unicode="&#x215b;" horiz-adv-x="627" 
d="M65 644q36 0 51.5 14t26.5 42h46v-444h-70v339h-54v49zM406 700h65l-276 -700h-65zM596 107q0 -53 -28.5 -82.5t-80.5 -29.5t-80.5 29.5t-28.5 82.5v34q0 69 43 93q-43 24 -43 89v14q0 53 28.5 82.5t80.5 29.5t80.5 -29.5t28.5 -82.5v-14q0 -65 -43 -89q43 -24 43 -93
v-34zM448 310q0 -47 39 -47t39 47v25q0 51 -39 51t-39 -51v-25zM448 108q0 -50 39 -50t39 50v42q0 50 -39 50t-39 -50v-42z" />
    <glyph glyph-name="threeeighths" unicode="&#x215c;" horiz-adv-x="627" 
d="M174 399q0 31 -10.5 43.5t-34.5 12.5h-24v63h27q42 0 42 48v25q0 51 -36 51t-36 -44v-28h-66v23q0 112 104 112t104 -112v-11q0 -71 -49 -91q49 -21 49 -93v-35q0 -112 -104 -112t-104 112v36h66v-41q0 -44 36 -44t36 51v34zM419 700h65l-276 -700h-65zM596 107
q0 -53 -28.5 -82.5t-80.5 -29.5t-80.5 29.5t-28.5 82.5v34q0 69 43 93q-43 24 -43 89v14q0 53 28.5 82.5t80.5 29.5t80.5 -29.5t28.5 -82.5v-14q0 -65 -43 -89q43 -24 43 -93v-34zM448 310q0 -47 39 -47t39 47v25q0 51 -39 51t-39 -51v-25zM448 108q0 -50 39 -50t39 50v42
q0 50 -39 50t-39 -50v-42z" />
    <glyph glyph-name="fiveeighths" unicode="&#x215d;" horiz-adv-x="627" 
d="M419 700h65l-276 -700h-65zM103 398v-41q0 -43 36 -43t36 43v97q0 44 -36 44t-36 -44v-13h-66l13 258h184v-64h-122l-5 -106q19 33 61 33q77 0 77 -102v-99q0 -54 -26.5 -83t-77.5 -29t-77.5 29t-26.5 83v37h66zM596 107q0 -53 -28.5 -82.5t-80.5 -29.5t-80.5 29.5
t-28.5 82.5v34q0 69 43 93q-43 24 -43 89v14q0 53 28.5 82.5t80.5 29.5t80.5 -29.5t28.5 -82.5v-14q0 -65 -43 -89q43 -24 43 -93v-34zM448 310q0 -47 39 -47t39 47v25q0 51 -39 51t-39 -51v-25zM448 108q0 -50 39 -50t39 50v42q0 50 -39 50t-39 -50v-42z" />
    <glyph glyph-name="seveneighths" unicode="&#x215e;" horiz-adv-x="627" 
d="M245 700v-61l-103 -383h-70l102 381h-139v63h210zM389 700h65l-276 -700h-65zM596 107q0 -53 -28.5 -82.5t-80.5 -29.5t-80.5 29.5t-28.5 82.5v34q0 69 43 93q-43 24 -43 89v14q0 53 28.5 82.5t80.5 29.5t80.5 -29.5t28.5 -82.5v-14q0 -65 -43 -89q43 -24 43 -93v-34z
M448 310q0 -47 39 -47t39 47v25q0 51 -39 51t-39 -51v-25zM448 108q0 -50 39 -50t39 50v42q0 50 -39 50t-39 -50v-42z" />
    <glyph glyph-name="minus" unicode="&#x2212;" 
d="M371 389v-78h-346v78h346z" />
    <glyph glyph-name="infinity" unicode="&#x221e;" horiz-adv-x="600" 
d="M180 216q-68 0 -105 34.5t-37 99.5t37 99.5t105 34.5h10q88 0 116 -51q27 51 112 51h12q67 0 103.5 -34.5t36.5 -99.5t-36.5 -99.5t-103.5 -34.5h-12q-84 0 -112 51q-28 -51 -116 -51h-10zM181 409q-66 0 -66 -59q0 -57 66 -58h20q68 0 68 58q0 59 -68 59h-20zM406 409
q-66 0 -66 -59q0 -57 66 -58h20q68 0 68 58q0 59 -68 59h-20z" />
    <glyph glyph-name="approxequal" unicode="&#x2248;" 
d="M8 415q34 51 61.5 70.5t57.5 19.5q29 0 76 -30.5t67 -30.5q16 0 28.5 11.5t37.5 45.5l52 -54q-34 -50 -61 -68t-58 -18q-29 0 -76 30.5t-67 30.5q-17 0 -29.5 -11.5t-36.5 -45.5zM8 249q34 51 61.5 70.5t57.5 19.5q29 0 76 -30.5t67 -30.5q16 0 28.5 11.5t37.5 45.5
l52 -54q-34 -50 -61 -68t-58 -18q-29 0 -76 30.5t-67 30.5q-17 0 -29.5 -11.5t-36.5 -45.5z" />
    <glyph glyph-name="uniF6C3" unicode="&#xf6c3;" horiz-adv-x="0" 
 />
    <glyph glyph-name="zero.alt" 
d="M31 532q0 84 43 130t124 46t124 -46t43 -130v-364q0 -84 -43 -130t-124 -46t-124 46t-43 130v364zM141 161q0 -69 57 -69t57 69v378q0 69 -57 69t-57 -69v-378z" />
    <glyph glyph-name="one.alt" horiz-adv-x="250" 
d="M15 612q57 0 81 22t40 66h74v-700h-110v534h-85v78z" />
    <glyph glyph-name="two.alt" horiz-adv-x="369" 
d="M244 528q0 45 -14.5 62.5t-42.5 17.5q-57 0 -57 -69v-75h-104v68q0 85 42 130.5t122 45.5t122 -45.5t42 -130.5q0 -64 -24.5 -120.5t-58.5 -96.5t-67 -75t-53.5 -70.5t-14.5 -69.5h208v-100h-318v86q0 57 22.5 104.5t54.5 83t64 70t54.5 81.5t22.5 103z" />
    <glyph glyph-name="three.alt" horiz-adv-x="382" 
d="M245 528q0 45 -14.5 62.5t-42.5 17.5q-57 0 -57 -69v-45h-104v38q0 85 42 130.5t122 45.5t122 -45.5t42 -130.5v-18q0 -112 -77 -144q77 -34 77 -147v-55q0 -85 -42 -130.5t-122 -45.5t-122 45.5t-42 130.5v58h104v-65q0 -69 57 -69q28 0 42.5 17.5t14.5 61.5v55
q0 48 -17 68.5t-55 20.5h-37v100h43q33 0 49.5 17t16.5 57v39z" />
    <glyph glyph-name="four.alt" horiz-adv-x="397" 
d="M14 227l200 473h120v-473h52v-100h-52v-127h-110v127h-210v100zM224 227v259l-109 -259h109z" />
    <glyph glyph-name="five.alt" horiz-adv-x="383" 
d="M132 226v-65q0 -68 57 -68t57 68v154q0 69 -57 69t-57 -69v-21h-104l20 406h290v-100h-191l-9 -167q31 51 96 51q122 0 122 -160v-156q0 -85 -42 -130.5t-122 -45.5t-122 45.5t-42 130.5v58h104z" />
    <glyph glyph-name="six.alt" horiz-adv-x="392" 
d="M31 526q0 182 168 182q80 0 122 -45.5t42 -130.5v-18h-104v25q0 69 -57 69q-31 0 -46 -19t-15 -67v-128q29 62 102 62q122 0 122 -160v-128q0 -84 -43 -130t-124 -46t-124 46t-43 130v358zM198 356q-57 0 -57 -69v-126q0 -68 57 -68t57 68v126q0 69 -57 69z" />
    <glyph glyph-name="seven.alt" horiz-adv-x="340" 
d="M10 700h320v-96l-152 -604h-110l151 600h-209v100z" />
    <glyph glyph-name="eight.alt" horiz-adv-x="398" 
d="M371 168q0 -84 -44.5 -130t-127.5 -46t-127.5 46t-44.5 130v55q0 108 68 146q-68 37 -68 141v22q0 84 44.5 130t127.5 46t127.5 -46t44.5 -130v-22q0 -103 -68 -141q68 -38 68 -146v-55zM137 489q0 -74 62 -74t62 74v39q0 80 -62 80t-62 -80v-39zM137 171q0 -79 62 -79
q61 0 62 79v65q0 79 -62 79t-62 -79v-65z" />
    <glyph glyph-name="nine.alt" horiz-adv-x="392" 
d="M361 174q0 -182 -168 -182q-80 0 -122 45.5t-42 130.5v18h104v-25q0 -69 57 -69q31 0 46 19t15 67v128q-29 -62 -102 -62q-122 0 -122 160v128q0 84 43 130t124 46t124 -46t43 -130v-358zM194 344q57 0 57 69v126q0 68 -57 68t-57 -68v-126q0 -69 57 -69z" />
    <glyph glyph-name="CR" horiz-adv-x="155" 
 />
    <glyph glyph-name="NULL" horiz-adv-x="0" 
 />
    <glyph glyph-name="Edotaaccent" horiz-adv-x="600" 
 />
    <glyph glyph-name="edotaaccent" horiz-adv-x="600" 
 />
    <glyph glyph-name="lcute" horiz-adv-x="600" 
 />
    </font>
</defs>
</svg>
